<?xml version="1.0" standalone="no"?>
<!DOCTYPE svg PUBLIC "-//W3C//DTD SVG 1.1//EN" "http://www.w3.org/Graphics/SVG/1.1/DTD/svg11.dtd" >
<svg xmlns="http://www.w3.org/2000/svg">
<metadata>
<json>
<![CDATA[
{
	"fontFamily": "Aicon",
	"majorVersion": 1,
	"minorVersion": 16,
	"description": "Aicon : icon font for web and apps\nFont generated by IcoMoon.",
	"copyright": "Naeem",
	"license": "MIT",
	"fontURL": "https://naeemur.github.io/aicon",
	"designer": "Naeem",
	"designerURL": "https://naeemur.github.io/",
	"licenseURL": "https://naeemur.github.io/aicon/license.html",
	"version": "Version 1.16",
	"fontId": "Aicon",
	"psName": "Aicon",
	"subFamily": "Regular",
	"fullName": "Aicon"
}
]]>
</json>
</metadata>
<defs>
<font id="Aicon" horiz-adv-x="1024">
<font-face units-per-em="1024" ascent="960" descent="-64" />
<missing-glyph horiz-adv-x="1024" />
<glyph unicode="&#x20;" horiz-adv-x="512" d="" />
<glyph unicode="&#xe900;" glyph-name="airplay" data-tags="airplay" d="M512 215.040l-279.040-279.040h558.080l-279.040 279.040zM930.56 820.48h-837.12c-51.489-0.289-93.151-41.951-93.44-93.412v-558.748c0.289-51.135 41.665-92.511 92.772-92.8h186.268v93.44h-186.24v558.080h838.4v-558.080h-186.24v-93.44h186.24c51.135 0.289 92.511 41.665 92.8 92.772v558.748c-0.289 51.489-41.951 93.151-93.412 93.44h-0.028z" />
<glyph unicode="&#xe901;" glyph-name="alarm-off" data-tags="alarm-off" d="M818.56 796.8l-36.48-37.12-72.96-72.32-494.72-494.72-72.96-72.32c0-0.353 0.287-0.64 0.64-0.64v0l-110.080-109.44 64-63.36 106.24 106.24c80.743-73.010 188.311-117.688 306.313-117.688 252.655 0 457.472 204.817 457.472 457.472 0 117.843-44.557 225.279-117.743 306.38l0.358-0.403 39.68 39.68 62.72-52.48 65.92 77.44-56.32 47.36 63.36 63.36-64 64zM864.64 393.6c-0.109-196.549-159.468-355.84-356.032-355.84-0.158 0-0.315 0-0.473 0h0.025c-0.369-0.001-0.807-0.002-1.244-0.002-89.037 0-170.31 33.245-232.081 88l0.365-0.318 501.76 501.76c54.445-61.673 87.682-143.187 87.682-232.465 0-0.399-0.001-0.798-0.002-1.196v0.061zM50.56 393.6c-0.001-0.347-0.002-0.759-0.002-1.17 0-69.833 16.058-135.915 44.683-194.755l-1.161 2.645 78.080 78.080c-12.572 33.545-19.849 72.31-19.849 112.776 0 0.853 0.003 1.704 0.010 2.555l-0.001-0.131c0.036 196.51 159.33 355.804 355.837 355.84h0.003c41.496-0.141 81.306-7.159 118.415-19.973l-2.575 0.773 77.44 77.44c-56.19 27.463-122.268 43.522-192.095 43.522-0.417 0-0.833-0.001-1.249-0.002h0.065c-252.652-0.182-457.417-204.947-457.6-457.582v-0.018zM821.12 927.36l-38.4 32.64-65.28-78.080 32-26.24 71.68 71.68zM0.034 764.481l233.719 195.399 65.106-77.874-233.719-195.399-65.106 77.874z" />
<glyph unicode="&#xe902;" glyph-name="alarm-on" data-tags="alarm-on" d="M1016.96 763.52l-234.24 196.48-65.28-78.080 233.6-195.84 65.92 77.44zM0.034 764.481l233.719 195.399 65.106-77.874-233.719-195.399-65.106 77.874zM50.56 393.6c0-252.726 204.874-457.6 457.6-457.6s457.6 204.874 457.6 457.6c0 252.726-204.874 457.6-457.6 457.6v0c-0.019 0-0.042 0-0.064 0-252.69 0-457.536-204.846-457.536-457.536 0-0.022 0-0.045 0-0.067v0.003zM508.16 749.44c196.525 0 355.84-159.315 355.84-355.84s-159.315-355.84-355.84-355.84c-196.525 0-355.84 159.315-355.84 355.84v0c0.109 196.481 159.359 355.731 355.829 355.84h0.011zM738.56 513.28l-53.76 54.4-250.88-252.16-108.16 108.8-53.76-54.4 161.92-161.28 304.64 304.64z" />
<glyph unicode="&#xe903;" glyph-name="alert" data-tags="alert" d="M64 256l256-256h384l256 256v384l-256 256h-384l-256-256zM448 704h128v-320h-128zM448 320h128v-128h-128z" />
<glyph unicode="&#xe904;" glyph-name="align-bottom" data-tags="align-bottom" d="M896 576c-70.692 0-128-57.308-128-128v0-384c0-70.692 57.308-128 128-128s128 57.308 128 128v0 384c0 70.692-57.308 128-128 128v0zM128 576c-70.692 0-128-57.308-128-128v0-384c0-70.692 57.308-128 128-128s128 57.308 128 128v0 384c0 70.692-57.308 128-128 128v0zM512 960c-70.692 0-128-57.308-128-128v0-768c0-70.692 57.308-128 128-128s128 57.308 128 128v0 768c0 70.692-57.308 128-128 128v0z" />
<glyph unicode="&#xe905;" glyph-name="align-h-center" data-tags="align-h-center" d="M320 960c-70.692 0-128-57.308-128-128s57.308-128 128-128v0h384c70.692 0 128 57.308 128 128s-57.308 128-128 128v0zM704 192h-384c-70.692 0-128-57.308-128-128s57.308-128 128-128v0h384c70.692 0 128 57.308 128 128s-57.308 128-128 128v0zM896 576h-768c-70.692 0-128-57.308-128-128s57.308-128 128-128v0h768c70.692 0 128 57.308 128 128s-57.308 128-128 128v0z" />
<glyph unicode="&#xe906;" glyph-name="align-left" data-tags="align-left" d="M128 704h384c70.692 0 128 57.308 128 128s-57.308 128-128 128v0h-384c-70.692 0-128-57.308-128-128s57.308-128 128-128v0zM512 192h-384c-70.692 0-128-57.308-128-128s57.308-128 128-128v0h384c70.692 0 128 57.308 128 128s-57.308 128-128 128v0zM896 576h-768c-70.692 0-128-57.308-128-128s57.308-128 128-128v0h768c70.692 0 128 57.308 128 128s-57.308 128-128 128v0z" />
<glyph unicode="&#xe907;" glyph-name="align-right" data-tags="align-right" d="M896 960h-384c-70.692 0-128-57.308-128-128s57.308-128 128-128v0h384c70.692 0 128 57.308 128 128s-57.308 128-128 128v0zM896 192h-384c-70.692 0-128-57.308-128-128s57.308-128 128-128v0h384c70.692 0 128 57.308 128 128s-57.308 128-128 128v0zM896 576h-768c-70.692 0-128-57.308-128-128s57.308-128 128-128v0h768c70.692 0 128 57.308 128 128s-57.308 128-128 128v0z" />
<glyph unicode="&#xe908;" glyph-name="align-top" data-tags="align-top" d="M896 960c-70.692 0-128-57.308-128-128v0-384c0-70.692 57.308-128 128-128s128 57.308 128 128v0 384c0 70.692-57.308 128-128 128v0zM128 960c-70.692 0-128-57.308-128-128v0-384c0-70.692 57.308-128 128-128s128 57.308 128 128v0 384c0 70.692-57.308 128-128 128v0zM512 960c-70.692 0-128-57.308-128-128v0-768c0-70.692 57.308-128 128-128s128 57.308 128 128v0 768c0 70.692-57.308 128-128 128v0z" />
<glyph unicode="&#xe909;" glyph-name="align-v-center" data-tags="align-v-center" d="M896 768c-70.692 0-128-57.308-128-128v0-384c0-70.692 57.308-128 128-128s128 57.308 128 128v0 384c0 70.692-57.308 128-128 128v0zM128 768c-70.692 0-128-57.308-128-128v0-384c0-70.692 57.308-128 128-128s128 57.308 128 128v0 384c0 70.692-57.308 128-128 128v0zM512 960c-70.692 0-128-57.308-128-128v0-768c0-70.692 57.308-128 128-128s128 57.308 128 128v0 768c0 70.692-57.308 128-128 128v0z" />
<glyph unicode="&#xe90a;" glyph-name="anchor" data-tags="anchor" d="M711.040 248.96h72.96c-49.585-76.049-128.438-129.467-220.211-144.389l-1.869-0.251v343.68h149.12v99.84h-149.12v108.16c58.754 21.019 100.036 76.207 100.036 141.037 0 20.944-4.308 40.881-12.087 58.974l0.372-0.972c-17.591 41.774-52.902 73.095-96.26 84.884l-1.020 0.236c-12.233 3.614-26.288 5.693-40.828 5.693-82.427 0-149.248-66.821-149.248-149.248 0-64.482 40.892-119.412 98.159-140.275l1.037-0.33v-108.16h-149.12v-99.84h149.12v-344.32c-93.76 15.263-172.655 68.932-221.313 144.016l-0.767 1.264h72.96v99.84h-248.96v-248.96h99.84v84.48c76.891-111.895 204.176-184.331 348.378-184.331 143.93 0 271.006 72.162 347.021 182.28l0.921 1.411v-83.84h99.84v248.96h-248.96zM512 746.88c-27.57 0-49.92 22.35-49.92 49.92s22.35 49.92 49.92 49.92v0c27.57 0 49.92-22.35 49.92-49.92s-22.35-49.92-49.92-49.92v0z" />
<glyph unicode="&#xe90b;" glyph-name="angle-brakets" data-tags="angle-brakets" d="M352 768l-288-320 288-320 96 96-224 224 224 224-96 96zM672 128l288 320-288 320-96-96 224-224-224-224 96-96z" />
<glyph unicode="&#xe90c;" glyph-name="app" data-tags="app" d="M960 960h-320c-35.346 0-64-28.654-64-64v0-320c0-35.346 28.654-64 64-64v0h320c35.346 0 64 28.654 64 64v0 320c0 35.346-28.654 64-64 64v0zM960 576h-320v320h320zM384 960h-320c-35.346 0-64-28.654-64-64v0-320c0-35.346 28.654-64 64-64v0h320c35.346 0 64 28.654 64 64v0 320c0 35.346-28.654 64-64 64v0zM384 576h-320v320h320zM960 384h-320c-35.346 0-64-28.654-64-64v0-320c0-35.346 28.654-64 64-64v0h320c35.346 0 64 28.654 64 64v0 320c0 35.346-28.654 64-64 64v0zM960 0h-320v320h320zM384 384h-320c-35.346 0-64-28.654-64-64v0-320c0-35.346 28.654-64 64-64v0h320c35.346 0 64 28.654 64 64v0 320c0 35.346-28.654 64-64 64v0zM384 0h-320v320h320z" />
<glyph unicode="&#xe90d;" glyph-name="approval" data-tags="approval" d="M926.272 748.8l-168 38.4-88 147.904-158.272-67.968-158.272 67.968-87.936-147.904-168-37.696 15.808-171.264-113.6-130.24 113.6-129.408-15.872-171.392 168-38.4 88-148.032 158.272 68.544 158.272-67.712 88 148.032 168 38.4-15.808 171.264 113.536 128.704-113.6 129.6zM418.88 215.488l-186.176 186.176 65.664 65.536 120.512-120 306.752 306.752 65.6-66.112z" />
<glyph unicode="&#xe90e;" glyph-name="arrow-angle-down" data-tags="arrow-angle-down" d="M149.952 719.552l-90.496-90.56 452.544-452.544 452.544 452.544-90.496 90.56-362.048-362.048-362.048 362.048z" />
<glyph unicode="&#xe90f;" glyph-name="arrow-angle-left" data-tags="arrow-angle-left" d="M692.992 900.544l-452.544-452.544 452.544-452.544 90.56 90.496-362.048 362.048 362.048 362.048-90.56 90.496z" />
<glyph unicode="&#xe910;" glyph-name="arrow-angle-mini-down" data-tags="arrow-angle-mini-down" d="M512.32 423.36l-229.76 229.76-90.24-90.24 320-320 319.36 320-90.24 90.24-229.12-229.76z" />
<glyph unicode="&#xe911;" glyph-name="arrow-angle-mini-left" data-tags="arrow-angle-mini-left" d="M626.88 767.68l-320-320 320-319.36 90.24 90.24-229.76 229.12 229.76 229.76-90.24 90.24z" />
<glyph unicode="&#xe912;" glyph-name="arrow-angle-mini-right" data-tags="arrow-angle-mini-right" d="M397.12 128.32l320 320-320 319.36-90.24-90.24 229.76-229.12-229.76-229.76 90.24-90.24z" />
<glyph unicode="&#xe913;" glyph-name="arrow-angle-mini-up" data-tags="arrow-angle-mini-up" d="M282.56 242.88l229.12 229.76 229.76-229.76 90.24 90.24-320 320-319.36-320 90.24-90.24z" />
<glyph unicode="&#xe914;" glyph-name="arrow-angle-right" data-tags="arrow-angle-right" d="M692.992 538.496l-361.984 362.048-90.56-90.496 362.048-362.048-362.048-362.048 90.56-90.496 452.544 452.544-90.56 90.496z" />
<glyph unicode="&#xe915;" glyph-name="arrow-angle-up" data-tags="arrow-angle-up" d="M59.456 267.008l90.496-90.56 362.048 362.048 362.048-362.048 90.496 90.56-452.544 452.544-452.544-452.544z" />
<glyph unicode="&#xe916;" glyph-name="arrow-circle-angle-down" data-tags="arrow-circle-angle-down" d="M512 960c-282.77 0-512-229.23-512-512s229.23-512 512-512c282.77 0 512 229.23 512 512v0c0 282.77-229.23 512-512 512v0zM512 32c-229.75 0-416 186.25-416 416s186.25 416 416 416c229.75 0 416-186.25 416-416v0c0-229.75-186.25-416-416-416v0zM512 410.496l-194.752 194.752-90.496-90.496 285.248-285.248 285.248 285.248-90.496 90.496-194.752-194.752z" />
<glyph unicode="&#xe917;" glyph-name="arrow-circle-angle-left" data-tags="arrow-circle-angle-left" d="M512 960c-282.77 0-512-229.23-512-512s229.23-512 512-512c282.77 0 512 229.23 512 512v0c0 282.77-229.23 512-512 512v0zM512 32c-229.75 0-416 186.25-416 416s186.25 416 416 416c229.75 0 416-186.25 416-416v0c0-229.75-186.25-416-416-416v0zM578.752 733.248l-285.248-285.248 285.248-285.248 90.496 90.496-194.752 194.752 194.752 194.752-90.496 90.496z" />
<glyph unicode="&#xe918;" glyph-name="arrow-circle-angle-right" data-tags="arrow-circle-angle-right" d="M512 960c-282.77 0-512-229.23-512-512s229.23-512 512-512c282.77 0 512 229.23 512 512v0c0 282.77-229.23 512-512 512v0zM512 32c-229.75 0-416 186.25-416 416s186.25 416 416 416c229.75 0 416-186.25 416-416v0c0-229.75-186.25-416-416-416v0zM354.752 642.752l194.752-194.752-194.752-194.752 90.496-90.496 285.248 285.248-285.248 285.248-90.496-90.496z" />
<glyph unicode="&#xe919;" glyph-name="arrow-circle-angle-thin-down" data-tags="arrow-circle-angle-thin-down" d="M512 960c-282.77 0-512-229.23-512-512s229.23-512 512-512c282.77 0 512 229.23 512 512v0c0 282.77-229.23 512-512 512v0zM512 0c-247.424 0-448 200.576-448 448s200.576 448 448 448c247.424 0 448-200.576 448-448v0c-0.291-247.307-200.694-447.709-447.973-448h-0.027zM512 346.496l-218.496 218.496-45.248-45.248 263.744-263.744 263.744 263.744-45.248 45.248-218.496-218.496z" />
<glyph unicode="&#xe91a;" glyph-name="arrow-circle-angle-thin-left" data-tags="arrow-circle-angle-thin-left" d="M512 960c-282.77 0-512-229.23-512-512s229.23-512 512-512c282.77 0 512 229.23 512 512v0c0 282.77-229.23 512-512 512v0zM512 0c-247.424 0-448 200.576-448 448s200.576 448 448 448c247.424 0 448-200.576 448-448v0c-0.291-247.307-200.694-447.709-447.973-448h-0.027zM583.744 711.744l-263.744-263.744 263.744-263.744 45.248 45.248-218.496 218.496 218.496 218.496-45.248 45.248z" />
<glyph unicode="&#xe91b;" glyph-name="arrow-circle-angle-thin-right" data-tags="arrow-circle-angle-thin-right" d="M512 960c-282.77 0-512-229.23-512-512s229.23-512 512-512c282.77 0 512 229.23 512 512v0c0 282.77-229.23 512-512 512v0zM512 0c-247.424 0-448 200.576-448 448s200.576 448 448 448c247.424 0 448-200.576 448-448v0c-0.291-247.307-200.694-447.709-447.973-448h-0.027zM658.752 493.248l-218.496 218.496-45.248-45.248 218.496-218.496-218.496-218.496 45.248-45.248 263.744 263.744-45.248 45.248z" />
<glyph unicode="&#xe91c;" glyph-name="arrow-circle-angle-thin-up" data-tags="arrow-circle-angle-thin-up" d="M512 960c-282.77 0-512-229.23-512-512s229.23-512 512-512c282.77 0 512 229.23 512 512v0c0 282.77-229.23 512-512 512v0zM512 0c-247.424 0-448 200.576-448 448s200.576 448 448 448c247.424 0 448-200.576 448-448v0c-0.291-247.307-200.694-447.709-447.973-448h-0.027zM248.256 376.256l45.248-45.248 218.496 218.496 218.496-218.496 45.248 45.248-263.744 263.744-263.744-263.744z" />
<glyph unicode="&#xe91d;" glyph-name="arrow-circle-angle-up" data-tags="arrow-circle-angle-up" d="M512 960c-282.77 0-512-229.23-512-512s229.23-512 512-512c282.77 0 512 229.23 512 512v0c0 282.77-229.23 512-512 512v0zM512 32c-229.75 0-416 186.25-416 416s186.25 416 416 416c229.75 0 416-186.25 416-416v0c0-229.75-186.25-416-416-416v0zM226.752 381.248l90.496-90.496 194.752 194.752 194.752-194.752 90.496 90.496-285.248 285.248-285.248-285.248z" />
<glyph unicode="&#xe91e;" glyph-name="arrow-circle-fat-down" data-tags="arrow-circle-fat-down" d="M640 704h-256v-256h-128l256-256 256 256h-128v256zM512 960c-282.77 0-512-229.23-512-512s229.23-512 512-512c282.77 0 512 229.23 512 512v0c-0.509 282.565-229.435 511.491-511.951 512h-0.049zM828.8 131.2c-81.076-81.076-193.082-131.223-316.8-131.223-247.436 0-448.023 200.587-448.023 448.023 0 123.718 50.147 235.724 131.223 316.8v0c81.076 81.076 193.082 131.223 316.8 131.223 247.436 0 448.023-200.587 448.023-448.023 0-123.718-50.147-235.724-131.223-316.8v0z" />
<glyph unicode="&#xe91f;" glyph-name="arrow-circle-fat-left" data-tags="arrow-circle-fat-left" d="M512 704l-256-256 256-256v128h256v256h-256v128zM512 960c-282.082-0.395-510.602-229.158-510.602-511.296 0-282.381 228.915-511.296 511.296-511.296s511.296 228.915 511.296 511.296c0 141.188-57.226 269.009-149.75 361.535v0c-92.779 92.54-220.825 149.76-362.234 149.76-0.002 0-0.004 0-0.007 0h0.001zM512 0c-0.010 0-0.021 0-0.032 0-247.424 0-448 200.576-448 448 0 123.72 50.151 235.727 131.232 316.8v0c81.070 81.062 193.064 131.2 316.768 131.2 247.424 0 448-200.576 448-448 0-247.412-200.558-447.981-447.965-448h-0.002z" />
<glyph unicode="&#xe920;" glyph-name="arrow-circle-fat-right" data-tags="arrow-circle-fat-right" d="M512 576h-256v-256h256v-128l256 256-256 256v-128zM512 960c-282.082-0.395-510.602-229.158-510.602-511.296 0-282.381 228.915-511.296 511.296-511.296s511.296 228.915 511.296 511.296c0 141.188-57.226 269.009-149.75 361.535v0c-92.633 92.534-220.552 149.76-361.837 149.76-0.141 0-0.283 0-0.424 0h0.022zM828.8 131.2c-81.070-81.062-193.064-131.2-316.768-131.2-247.424 0-448 200.576-448 448 0 247.412 200.558 447.981 447.965 448h0.002c0.010 0 0.021 0 0.032 0 247.424 0 448-200.576 448-448 0-123.72-50.151-235.727-131.232-316.8v0z" />
<glyph unicode="&#xe921;" glyph-name="arrow-circle-fat-up" data-tags="arrow-circle-fat-up" d="M512 704l-256-256h128v-256h256v256h128l-256 256zM512 960c-282.082-0.395-510.602-229.158-510.602-511.296 0-282.381 228.915-511.296 511.296-511.296s511.296 228.915 511.296 511.296c0 141.188-57.226 269.009-149.75 361.535v0c-92.769 92.539-220.806 149.76-362.208 149.76-0.011 0-0.023 0-0.034 0h0.002zM828.8 131.2c-81.076-81.076-193.082-131.223-316.8-131.223-247.436 0-448.023 200.587-448.023 448.023 0 123.718 50.147 235.724 131.223 316.8v0c81.076 81.076 193.082 131.223 316.8 131.223 247.436 0 448.023-200.587 448.023-448.023 0-123.718-50.147-235.724-131.223-316.8v0z" />
<glyph unicode="&#xe922;" glyph-name="arrow-circle-linear-down" data-tags="arrow-circle-linear-down" d="M512 960c-282.77 0-512-229.23-512-512s229.23-512 512-512c282.77 0 512 229.23 512 512v0c0 282.77-229.23 512-512 512v0zM512 32c-228.461 1.695-413.010 187.29-413.010 415.989 0 206.094 149.87 377.184 346.57 410.232l2.44 0.339v-422.4l-135.424 135.168c-8.689 8.689-20.693 14.063-33.952 14.063-26.518 0-48.015-21.497-48.015-48.015 0-13.259 5.374-25.263 14.063-33.952l233.408-233.344c8.687-8.693 20.692-14.070 33.952-14.070s25.265 5.377 33.952 14.069l233.344 233.344c8.689 8.689 14.063 20.693 14.063 33.952 0 26.518-21.497 48.015-48.015 48.015-13.259 0-25.263-5.374-33.952-14.063l-135.424-135.424v422.4c198.43-34.014 347.538-204.758 347.538-410.328 0-228.182-183.715-413.455-411.3-415.974l-0.238-0.002z" />
<glyph unicode="&#xe923;" glyph-name="arrow-circle-linear-left" data-tags="arrow-circle-linear-left" d="M512 960c-282.77 0-512-229.23-512-512s229.23-512 512-512c282.77 0 512 229.23 512 512v0c0 282.77-229.23 512-512 512v0zM512 32c-0.145 0-0.316 0-0.487 0-229.75 0-416 186.25-416 416s186.25 416 416 416c207.159 0 378.951-151.422 410.733-349.622l0.314-2.378h-422.4l135.168 135.424c8.689 8.689 14.063 20.693 14.063 33.952 0 26.518-21.497 48.015-48.015 48.015-13.259 0-25.263-5.374-33.952-14.063l-233.344-233.408c-8.693-8.687-14.070-20.692-14.070-33.952s5.377-25.265 14.069-33.952l233.344-233.344c8.689-8.689 20.693-14.063 33.952-14.063 26.518 0 48.015 21.497 48.015 48.015 0 13.259-5.374 25.263-14.063 33.952l-135.424 135.424h422.4c-32.056-200.328-203.455-351.618-410.264-352h-0.040z" />
<glyph unicode="&#xe924;" glyph-name="arrow-circle-linear-right" data-tags="arrow-circle-linear-right" d="M512 960c-282.77 0-512-229.23-512-512s229.23-512 512-512c282.77 0 512 229.23 512 512v0c0 282.77-229.23 512-512 512v0zM512 32c-206.955 0.25-378.49 151.585-410.246 349.622l-0.314 2.378h422.4l-135.168-135.424c-8.689-8.689-14.063-20.693-14.063-33.952 0-26.518 21.497-48.015 48.015-48.015 13.259 0 25.263 5.374 33.952 14.063l233.344 233.408c8.693 8.687 14.070 20.692 14.070 33.952s-5.377 25.265-14.069 33.952l-233.344 233.344c-8.689 8.689-20.693 14.063-33.952 14.063-26.518 0-48.015-21.497-48.015-48.015 0-13.259 5.374-25.263 14.063-33.952l135.424-135.424h-422.4c32.097 200.578 203.889 351.999 411.047 351.999 229.75 0 416-186.25 416-416s-186.25-416-416-416c-0.261 0-0.523 0-0.784 0.001h0.041z" />
<glyph unicode="&#xe925;" glyph-name="arrow-circle-linear-up" data-tags="arrow-circle-linear-up" d="M512 960c-282.77 0-512-229.23-512-512s229.23-512 512-512c282.77 0 512 229.23 512 512v0c0 282.77-229.23 512-512 512v0zM576 37.44v422.4l135.424-135.424c8.689-8.689 20.693-14.063 33.952-14.063 26.518 0 48.015 21.497 48.015 48.015 0 13.259-5.374 25.263-14.063 33.952l-233.408 233.6c-8.687 8.693-20.692 14.070-33.952 14.070s-25.265-5.377-33.952-14.069l-233.344-233.344c-8.689-8.689-14.063-20.693-14.063-33.952 0-26.518 21.497-48.015 48.015-48.015 13.259 0 25.263 5.374 33.952 14.063l135.424 135.424v-422.4c-200.578 32.097-352 203.889-352 411.047 0 229.75 186.25 416 416 416s416-186.25 416-416c0-207.159-151.422-378.951-349.622-410.733l-2.378-0.314z" />
<glyph unicode="&#xe926;" glyph-name="arrow-double-down" data-tags="arrow-double-down" d="M240.448 493.248l-90.496-90.496 362.048-362.048 362.048 362.048-90.496 90.496-271.552-271.552-271.552 271.552zM783.552 855.296l-271.552-271.552-271.552 271.552-90.496-90.496 362.048-362.048 362.048 362.048-90.496 90.496z" />
<glyph unicode="&#xe927;" glyph-name="arrow-double-left" data-tags="arrow-double-left" d="M104.704 448l362.048-362.048 90.496 90.496-271.552 271.552 271.552 271.552-90.496 90.496-362.048-362.048zM828.8 810.048l-362.048-362.048 362.048-362.048 90.496 90.496-271.552 271.552 271.552 271.552-90.496 90.496z" />
<glyph unicode="&#xe928;" glyph-name="arrow-double-right" data-tags="arrow-double-right" d="M466.752 176.448l90.496-90.496 362.048 362.048-362.048 362.048-90.496-90.496 271.552-271.552-271.552-271.552zM195.2 85.952l362.048 362.048-362.048 362.048-90.496-90.496 271.552-271.552-271.552-271.552 90.496-90.496z" />
<glyph unicode="&#xe929;" glyph-name="arrow-double-up" data-tags="arrow-double-up" d="M240.448 402.752l271.552 271.552 271.552-271.552 90.496 90.496-362.048 362.048-362.048-362.048 90.496-90.496zM240.448 40.704l271.552 271.552 271.552-271.552 90.496 90.496-362.048 362.048-362.048-362.048 90.496-90.496z" />
<glyph unicode="&#xe92a;" glyph-name="arrow-fat-down" data-tags="arrow-fat-down" d="M384 768v-256h-192l320-384 320 384h-192v256h-256z" />
<glyph unicode="&#xe92b;" glyph-name="arrow-fat-left" data-tags="arrow-fat-left" d="M192 448l384-320v192h256v256h-256v192l-384-320z" />
<glyph unicode="&#xe92c;" glyph-name="arrow-fat-right" data-tags="arrow-fat-right" d="M832 448l-384 320v-192h-256v-256h256v-192l384 320z" />
<glyph unicode="&#xe92d;" glyph-name="arrow-fat-up" data-tags="arrow-fat-up" d="M512 768l-320-384h192v-256h256v256h192l-320 384z" />
<glyph unicode="&#xe92e;" glyph-name="arrow-head-down" data-tags="arrow-head-down" d="M512 256l384 384h-768l384-384z" />
<glyph unicode="&#xe92f;" glyph-name="arrow-head-left" data-tags="arrow-head-left" d="M704 64v768l-384-384 384-384z" />
<glyph unicode="&#xe930;" glyph-name="arrow-head-right" data-tags="arrow-head-right" d="M320 64l384 384-384 384v-768z" />
<glyph unicode="&#xe931;" glyph-name="arrow-head-up" data-tags="arrow-head-up" d="M512 640l-384-384h768l-384 384z" />
<glyph unicode="&#xe932;" glyph-name="arrow-linear-down" data-tags="arrow-linear-down" d="M1009.792 433.792l-90.496 90.496-343.296-343.296v779.008h-128v-779.008l-343.296 343.296-90.496-90.496 497.792-497.792 497.792 497.792z" />
<glyph unicode="&#xe933;" glyph-name="arrow-linear-left" data-tags="arrow-linear-left" d="M588.288 855.296l-90.496 90.496-497.792-497.792 497.792-497.792 90.496 90.496-343.296 343.296h779.008v128h-779.008l343.296 343.296z" />
<glyph unicode="&#xe934;" glyph-name="arrow-linear-right" data-tags="arrow-linear-right" d="M435.712 40.704l90.496-90.496 497.792 497.792-497.792 497.792-90.496-90.496 343.296-343.296h-779.008v-128h779.008l-343.296-343.296z" />
<glyph unicode="&#xe935;" glyph-name="arrow-linear-rounded-down" data-tags="arrow-linear-rounded-down" d="M512 960c-35.346 0-64-28.654-64-64v0-741.504l-298.048 298.048c-11.654 12.054-27.97 19.538-46.034 19.538-35.346 0-64-28.654-64-64 0-18.064 7.484-34.38 19.52-46.017l0.018-0.017 407.296-407.296c11.581-11.578 27.578-18.738 45.248-18.738s33.667 7.161 45.248 18.739l407.296 407.296c12.054 11.654 19.538 27.97 19.538 46.034 0 35.346-28.654 64-64 64-18.064 0-34.38-7.484-46.017-19.52l-0.017-0.018-298.048-298.048v741.504c0 35.346-28.654 64-64 64v0z" />
<glyph unicode="&#xe936;" glyph-name="arrow-linear-rounded-left" data-tags="arrow-linear-rounded-left" d="M960 512h-741.504l298.048 298.048c11.116 11.497 17.966 27.179 17.966 44.462 0 35.346-28.654 64-64 64-17.282 0-32.964-6.85-44.48-17.983l0.018 0.017-407.296-407.296c-11.578-11.581-18.738-27.578-18.738-45.248s7.161-33.667 18.739-45.248l407.296-407.296c11.654-12.054 27.97-19.538 46.034-19.538 35.346 0 64 28.654 64 64 0 18.064-7.484 34.38-19.52 46.017l-0.018 0.017-298.048 298.048h741.504c35.346 0 64 28.654 64 64s-28.654 64-64 64v0z" />
<glyph unicode="&#xe937;" glyph-name="arrow-linear-rounded-right" data-tags="arrow-linear-rounded-right" d="M597.952 900.544c-11.654 12.054-27.97 19.538-46.034 19.538-35.346 0-64-28.654-64-64 0-18.064 7.484-34.38 19.52-46.017l0.018-0.017 298.048-298.048h-741.504c-35.346 0-64-28.654-64-64s28.654-64 64-64v0h741.504l-298.048-298.048c-12.054-11.654-19.538-27.97-19.538-46.034 0-35.346 28.654-64 64-64 18.064 0 34.38 7.484 46.017 19.52l0.017 0.018 407.296 407.296c11.578 11.581 18.738 27.578 18.738 45.248s-7.161 33.667-18.739 45.248v0z" />
<glyph unicode="&#xe938;" glyph-name="arrow-linear-rounded-up" data-tags="arrow-linear-rounded-up" d="M512-64c35.346 0 64 28.654 64 64v0 741.504l298.048-298.048c11.654-12.054 27.97-19.538 46.034-19.538 35.346 0 64 28.654 64 64 0 18.064-7.484 34.38-19.52 46.017l-0.018 0.017-407.296 407.296c-11.581 11.578-27.578 18.738-45.248 18.738s-33.667-7.161-45.248-18.739l-407.296-407.296c-12.054-11.654-19.538-27.97-19.538-46.034 0-35.346 28.654-64 64-64 18.064 0 34.38 7.484 46.017 19.52l0.017 0.018 298.048 298.048v-741.504c0-35.346 28.654-64 64-64v0z" />
<glyph unicode="&#xe939;" glyph-name="arrow-linear-up" data-tags="arrow-linear-up" d="M448 715.008v-779.008h128v779.008l343.296-343.296 90.496 90.496-497.792 497.792-497.792-497.792 90.496-90.496 343.296 343.296z" />
<glyph unicode="&#xe93a;" glyph-name="arrow-long-down" data-tags="arrow-long-down" d="M384 960v-704h-192l320-320 320 320h-192v704h-256z" />
<glyph unicode="&#xe93b;" glyph-name="arrow-long-eft" data-tags="arrow-long-eft" d="M320 768l-320-320 320-320v192h704v256h-704v192z" />
<glyph unicode="&#xe93c;" glyph-name="arrow-long-right" data-tags="arrow-long-right" d="M704 576h-704v-256h704v-192l320 320-320 320v-192z" />
<glyph unicode="&#xe93d;" glyph-name="arrow-long-up" data-tags="arrow-long-up" d="M640-64v704h192l-320 320-320-320h192v-704h256z" />
<glyph unicode="&#xe93e;" glyph-name="arrow-triangle-down" data-tags="arrow-triangle-down" d="M896 128l-384 691.2-384-691.2h768z" />
<glyph unicode="&#xe93f;" glyph-name="arrow-triangle-left" data-tags="arrow-triangle-left" d="M832 64v768l-691.2-384 691.2-384z" />
<glyph unicode="&#xe940;" glyph-name="arrow-triangle-right" data-tags="arrow-triangle-right" d="M192 64l691.2 384-691.2 384v-768z" />
<glyph unicode="&#xe941;" glyph-name="arrow-triangle-up" data-tags="arrow-triangle-up" d="M512 76.8l384 691.2h-768l384-691.2z" />
<glyph unicode="&#xe942;" glyph-name="article" data-tags="article" d="M704 448h320v-256h-320v256zM0 320h320v-64h-320v64zM384 320h256v-64h-256v64zM0 448h448v-64h-448v64zM512 448h128v-64h-128v64zM0 704h192v-64h-192v64zM256 704h320v-64h-320v64zM0 896h832v-128h-832v128zM0 192h384v-64h-384v64zM448 192h192v-64h-192v64zM320 64h256v-64h-256v64zM0 64h256v-64h-256v64zM640 64h384v-64h-384v64z" />
<glyph unicode="&#xe943;" glyph-name="baby" data-tags="baby" d="M85.312 0h398.272c47.134 0 85.344 38.21 85.344 85.344s-38.21 85.344-85.344 85.344v0h-398.272c-47.134 0-85.344-38.21-85.344-85.344s38.21-85.344 85.344-85.344v0zM1024 768c0-78.539-63.669-142.208-142.208-142.208s-142.208 63.669-142.208 142.208c0 78.539 63.669 142.208 142.208 142.208s142.208-63.669 142.208-142.208zM664.896 284.48l79.808-227.392c12.015-33.522 43.513-57.070 80.512-57.070 47.124 0 85.326 38.202 85.326 85.326 0 10.126-1.764 19.84-5.001 28.851l0.187-0.595-162.56 462.976c-12.224 34.88-32 91.904-202.752 91.904-128.376-3.386-243.566-57.169-327.032-142.199l-0.072-0.073 241.792-241.792z" />
<glyph unicode="&#xe944;" glyph-name="baby-buggy" data-tags="baby-buggy" d="M229.888 601.6h-178.688v-102.4h113.664s96.768-208.384 108.8-226.304c-56.494-30.902-94.169-89.922-94.169-157.741 0-98.969 80.231-179.2 179.2-179.2 89.954 0 164.427 66.279 177.249 152.666l0.119 0.979h106.496c12.59-87.741 87.247-154.433 177.48-154.433 98.969 0 179.2 80.231 179.2 179.2 0 53.468-23.416 101.466-60.553 134.299l-0.191 0.166c53.323 68.158 85.505 155.095 85.505 249.549 0 0.288 0 0.576-0.001 0.864v-0.045h-745.472zM819.2 192c42.415 0 76.8-34.385 76.8-76.8s-34.385-76.8-76.8-76.8c-42.415 0-76.8 34.385-76.8 76.8v0c0 42.415 34.385 76.8 76.8 76.8v0zM358.4 192c42.415 0 76.8-34.385 76.8-76.8s-34.385-76.8-76.8-76.8c-42.415 0-76.8 34.385-76.8 76.8v0c0 42.415 34.385 76.8 76.8 76.8v0zM614.4 960v-409.6h409.6c0 226.216-183.384 409.6-409.6 409.6v0z" />
<glyph unicode="&#xe945;" glyph-name="badge" data-tags="badge" d="M498.112 435.2v0c2.999-2.994 7.139-4.846 11.712-4.846s8.713 1.852 11.712 4.846l82.176 82.112c2.994 2.999 4.846 7.139 4.846 11.712s-1.852 8.713-4.846 11.712v0l-82.24 82.24-0.896 0.768c-2.876 2.555-6.685 4.115-10.859 4.115-4.566 0-8.696-1.868-11.667-4.881l-0.002-0.002-82.048-82.24c-3.010-2.992-4.873-7.134-4.873-11.712s1.863-8.72 4.872-11.711l0.001-0.001zM509.824 588.032l58.88-58.88-58.88-58.88-58.88 58.88zM141.952 161.856l148.032-4.48 66.368-123.584c2.799-5.115 8.085-8.558 14.188-8.704h0.66c6.002 0.019 11.254 3.214 14.166 7.991l0.042 0.073 92.608 154.688c10.816-1.024 21.568-1.536 32-1.536 12.611 0.025 25.027 0.722 37.252 2.056l-1.54-0.136 93.312-155.84c2.954-4.85 8.206-8.045 14.205-8.064h0.387c6.123 0.146 11.409 3.589 14.165 8.618l0.043 0.086 66.368 123.584 148.032 4.48c8.971 0.236 16.154 7.564 16.154 16.571 0 3.171-0.891 6.135-2.435 8.654l0.041-0.072-96 160c32.947 51.745 52.51 114.805 52.51 182.434 0 94.603-38.281 180.265-100.197 242.342l0.007-0.007c-62.022 62.086-147.738 100.492-242.425 100.492-189.244 0-342.656-153.412-342.656-342.656 0-68.939 20.359-133.123 55.391-186.868l-0.807 1.32-93.824-156.416c-1.458-2.418-2.32-5.337-2.32-8.457 0-8.958 7.105-16.256 15.988-16.566l0.028-0.001zM852.928 193.408l-129.472-3.904c-6.073-0.193-11.302-3.625-14.037-8.618l-0.043-0.086-57.088-106.368-71.424 119.296c80.954 17.435 149.569 61.542 197.856 122.489l0.544 0.711zM290.944 747.84c56.023 56.031 133.422 90.688 218.915 90.688 170.97 0 309.568-138.598 309.568-309.568s-138.598-309.568-309.568-309.568c-85.494 0-162.893 34.657-218.915 90.688v0c-56.509 55.789-91.511 133.247-91.511 218.88s35.001 163.091 91.478 218.848l0.032 0.032zM243.2 314.176c49.238-61.109 118.194-104.577 197.097-120.775l2.199-0.377-70.4-117.888-57.088 106.368c-2.777 5.079-8.007 8.511-14.054 8.703l-0.026 0.001-129.408 3.904zM315.904 722.944v0 0 0zM509.824 254.784c151.307 0.107 273.925 122.79 273.925 274.112 0 151.388-122.724 274.112-274.112 274.112s-274.112-122.724-274.112-274.112c0-75.74 30.719-144.306 80.377-193.918l0.002-0.002c49.342-49.539 117.614-80.193 193.044-80.193 0.308 0 0.616 0.001 0.924 0.002h-0.048zM339.2 699.52c43.676 43.801 104.081 70.901 170.816 70.901 133.22 0 241.216-107.996 241.216-241.216s-107.996-241.216-241.216-241.216c-133.134 0-241.076 107.856-241.216 240.957v0.014c-0.001 0.269-0.002 0.588-0.002 0.906 0 66.277 26.909 126.27 70.397 169.649l0.005 0.005z" />
<glyph unicode="&#xe946;" glyph-name="badge-free" data-tags="badge-free" d="M224.64 497.024h-148.928v63.296h155.776v70.784h-231.488v-366.208h75.712v161.408h148.928v70.72zM765.824 335.68h-164.224v93.12h153.6v70.4h-153.6v60.8h164.48v71.104h-240.448v-339.584l-105.472 129.152c15.459 8.081 28.311 19.174 38.187 32.592l0.213 0.304c13.591 18.713 21.741 42.144 21.741 67.478 0 1.14-0.017 2.276-0.049 3.409l0.004-0.166c0.022 0.801 0.035 1.743 0.035 2.688 0 18.119-4.611 35.162-12.724 50.018l0.273-0.546c-8 13.894-18.769 25.338-31.632 33.882l-0.368 0.23c-12.461 8.143-27.179 13.99-42.998 16.553l-0.65 0.087c-13.878 2.38-29.863 3.741-46.165 3.741-1.433 0-2.863-0.011-4.291-0.031l0.216 0.002h-101.76v-366.144h75.072v133.568h27.904l106.112-133.44h316.48zM399.040 495.68c-2.286-6.583-5.902-12.198-10.553-16.761l-0.007-0.007c-5.008-4.813-11.326-8.299-18.366-9.872l-0.258-0.048c-8.337-1.61-17.924-2.532-27.727-2.532-1.165 0-2.327 0.013-3.485 0.039l0.172-0.003h-23.552v95.104h28.544c1.118 0.037 2.433 0.058 3.753 0.058 8.778 0 17.339-0.93 25.589-2.697l-0.798 0.143c6.102-1.066 11.534-3.309 16.279-6.495l-0.151 0.095c4.604-3.062 8.22-7.275 10.486-12.234l0.074-0.182c2.353-5.363 3.723-11.614 3.723-18.185 0-0.357-0.004-0.713-0.012-1.068l0.001 0.053c0.013-0.524 0.020-1.142 0.020-1.761 0-8.407-1.366-16.496-3.887-24.056l0.155 0.536zM783.808 264.896h240.192v70.784h-164.48v93.056h153.28v70.784h-153.28v60.8h164.48v70.784h-240.192v-366.208zM805.952 826.88l-60.416-78.080c-4.163-5.348-6.674-12.161-6.674-19.56 0-8.831 3.577-16.827 9.362-22.617v0l22.784-22.784c5.792-5.796 13.795-9.382 22.636-9.382 7.447 0 14.3 2.544 19.737 6.81l-0.069-0.053 77.824 60.8c7.531 5.911 12.325 15.014 12.325 25.237 0 8.841-3.585 16.844-9.38 22.635l-40.192 40.192c-5.784 5.751-13.757 9.305-22.56 9.305-10.303 0-19.469-4.869-25.321-12.432l-0.055-0.074zM812.8 214.464c-5.348 4.163-12.161 6.674-19.56 6.674-8.831 0-16.827-3.577-22.617-9.362v0l-22.784-22.784c-5.775-5.788-9.346-13.777-9.346-22.6 0-7.463 2.555-14.329 6.838-19.772l-0.052 0.069 60.8-77.824c5.911-7.531 15.014-12.325 25.237-12.325 8.841 0 16.844 3.585 22.635 9.38l40.192 40.192c5.784 5.79 9.361 13.785 9.361 22.616 0 10.271-4.839 19.411-12.361 25.267l-0.072 0.054zM655.808 95.424c-4.911 11.752-16.313 19.859-29.607 19.859-2.968 0-5.842-0.404-8.569-1.16l0.225 0.053-30.656-8.32c-13.739-3.798-23.66-16.188-23.66-30.894 0-1.541 0.109-3.057 0.32-4.54l-0.020 0.17 13.568-98.176c2.221-15.697 15.567-27.638 31.701-27.638 2.928 0 5.765 0.393 8.459 1.13l-0.224-0.052 54.656 14.592c13.784 3.768 23.748 16.179 23.748 30.918 0 4.359-0.872 8.515-2.45 12.302l0.078-0.212zM436.736 105.856l-31.168 8.384c-2.455 0.676-5.273 1.064-8.182 1.064-13.448 0-24.959-8.296-29.694-20.049l-0.077-0.215-37.184-91.84c-1.482-3.555-2.342-7.686-2.342-12.017 0-14.751 9.981-27.171 23.558-30.875l0.224-0.052 54.784-14.592c2.47-0.684 5.306-1.078 8.235-1.078 16.135 0 29.48 11.941 31.682 27.468l0.020 0.17 13.568 98.176c0.206 1.364 0.323 2.937 0.323 4.538 0 14.738-9.964 27.15-23.523 30.865l-0.225 0.052zM252.992 212.288c-5.788 5.775-13.777 9.346-22.6 9.346-7.463 0-14.329-2.555-19.772-6.838l0.069 0.052-77.824-60.8c-7.531-5.911-12.325-15.014-12.325-25.237 0-8.841 3.585-16.844 9.38-22.635l40.192-40.192c5.79-5.784 13.785-9.361 22.616-9.361 10.271 0 19.411 4.839 25.267 12.361l0.054 0.072 60.416 78.144c4.163 5.348 6.674 12.161 6.674 19.56 0 8.831-3.577 16.827-9.362 22.617v0zM211.2 681.536c5.348-4.163 12.161-6.674 19.56-6.674 8.831 0 16.827 3.577 22.617 9.362v0l22.784 22.784c5.775 5.788 9.346 13.777 9.346 22.6 0 7.463-2.555 14.329-6.838 19.772l0.052-0.069-60.8 77.824c-5.912 7.469-14.978 12.217-25.152 12.217-8.787 0-16.747-3.542-22.53-9.275l-40.19-40.19c-5.784-5.79-9.361-13.785-9.361-22.616 0-10.271 4.839-19.411 12.361-25.267l0.072-0.054zM406.592 950.016l-54.592-14.528c-13.796-3.76-23.772-16.177-23.772-30.924 0-4.381 0.88-8.557 2.474-12.359l-0.078 0.211 37.568-91.84c4.911-11.752 16.313-19.859 29.607-19.859 2.968 0 5.842 0.404 8.569 1.16l-0.225-0.053 30.656 8.32c13.752 3.789 23.686 16.185 23.686 30.901 0 1.607-0.118 3.186-0.347 4.73l0.021-0.175-13.568 97.92c-2.241 15.675-15.577 27.592-31.695 27.592-2.954 0-5.814-0.4-8.53-1.149l0.225 0.053zM672 935.424l-54.592 14.592c-2.491 0.696-5.351 1.096-8.305 1.096-16.119 0-29.454-11.917-31.675-27.421l-0.020-0.171-13.568-97.92c-0.189-1.308-0.298-2.818-0.298-4.353 0-14.729 9.951-27.134 23.497-30.858l0.225-0.053 31.168-8.384c2.455-0.676 5.273-1.064 8.182-1.064 13.448 0 24.959 8.296 29.694 20.049l0.077 0.215 37.184 91.84c1.359 3.418 2.147 7.379 2.147 11.523 0 14.726-9.948 27.13-23.49 30.856l-0.225 0.053zM512 446.72v0.64h0.64l0.64 0.64h-0.64v0.64l-0.64 0.64v-0.64h-0.64l-0.64-0.64h0.64v-0.64l0.64-0.64z" />
<glyph unicode="&#xe947;" glyph-name="badge-premium" data-tags="badge-premium" d="M602.24 911.36c-23.080 23.126-54.989 37.433-90.24 37.433s-67.16-14.307-90.238-37.431l-373.122-373.122c-23.126-23.080-37.433-54.989-37.433-90.24s14.307-67.16 37.431-90.238l373.122-373.122c23.080-23.126 54.989-37.433 90.24-37.433s67.16 14.307 90.238 37.431l373.122 373.122c23.126 23.080 37.433 54.989 37.433 90.24s-14.307 67.16-37.431 90.238l-0.002 0.002zM731.52 550.4c-4.772-27.849-13.7-52.788-26.221-75.466l0.621 1.226c-13.363-23.91-30.010-44.23-49.636-61.2l-0.284-0.24c-22.468-19.547-48.799-35.378-77.601-46.144l-1.759-0.576c-28.409-9.783-61.145-15.431-95.201-15.431-2.306 0-4.607 0.026-6.901 0.077l0.341-0.006h-28.16l-33.28-192.64h-124.8l98.56 576h156.16c2.151 0.050 4.684 0.079 7.224 0.079 26.261 0 51.806-3.061 76.299-8.846l-2.243 0.447c23.071-5.494 43.258-15.481 60.491-29.051l-0.331 0.251c19.466-15.58 34.297-36.19 42.596-59.871l0.284-0.929c4.786-15.396 7.542-33.097 7.542-51.442 0-12.83-1.348-25.344-3.911-37.41l0.208 1.172zM590.080 603.52c-7.12 4.812-15.503 8.38-24.526 10.168l-0.434 0.072c-12.213 2.899-26.236 4.56-40.647 4.56-1.91 0-3.814-0.029-5.71-0.087l0.277 0.007h-26.88l-25.6-147.84h17.28c1.672-0.040 3.642-0.063 5.617-0.063 19.099 0 37.703 2.121 55.588 6.141l-1.685-0.318c12.113 3.032 22.65 8.582 31.468 16.090l-0.108-0.090c7.21 6.798 13.375 14.594 18.302 23.191l0.258 0.489c5.234 9.436 9.050 20.43 10.813 32.098l0.067 0.542c1.057 4.778 1.663 10.265 1.663 15.894 0 6.629-0.84 13.062-2.419 19.198l0.116-0.533c-2.327 8.313-7.048 15.315-13.365 20.421l-0.075 0.059z" />
<glyph unicode="&#xe948;" glyph-name="badge-super" data-tags="badge-super" d="M864 831.36c-21.651 41.719-64.511 69.735-113.916 69.76h-476.164c-49.409-0.025-92.269-28.041-113.584-69.050l-0.336-0.71-120.96-237.44c-8.765-16.838-13.906-36.768-13.906-57.899 0-32.030 11.812-61.3 31.317-83.694l-0.131 0.153 359.040-413.44c23.596-27.063 58.132-44.067 96.64-44.067s73.044 17.005 96.51 43.915l0.13 0.153 359.040 413.44c19.374 22.241 31.186 51.511 31.186 83.541 0 21.131-5.141 41.061-14.24 58.608l0.335-0.709zM466.56 604.8c9.568-10.388 22.323-17.711 36.706-20.415l0.414-0.065c14.72-4.48 32.64-8.96 55.040-14.080s41.6-10.24 56.96-14.72c38.786-10.039 71.274-32.545 93.758-62.906l0.322-0.454c15.328-23.623 24.442-52.511 24.442-83.527 0-7.333-0.509-14.547-1.495-21.608l0.093 0.815c-3.451-27.903-11.817-53.211-24.235-75.992l0.555 1.112c-13.193-24.83-30.587-45.699-51.451-62.418l-0.389-0.302c-21.303-18.014-46.116-32.738-73.147-42.946l-1.733-0.574c-27.637-9.364-59.47-14.768-92.564-14.768-1.883 0-3.762 0.017-5.637 0.052l0.281-0.004c-2.39-0.051-5.208-0.080-8.032-0.080-36.743 0-72.333 4.934-106.145 14.177l2.817-0.656c-32.397 10.144-59.525 20.998-85.638 33.621l3.718-1.621-17.92 9.6 28.16 177.28 46.080-45.44c18.884-19.213 41.416-34.771 66.483-45.56l1.357-0.52c21.521-10.52 46.829-16.671 73.574-16.671 28.271 0 54.936 6.873 78.416 19.039l-0.951-0.448c13.146 9.65 22.026 24.447 23.661 41.363l0.019 0.237c0.55 2.768 0.865 5.95 0.865 9.206 0 9.1-2.46 17.625-6.751 24.947l0.126-0.233c-8.634 9.9-20.289 16.968-33.519 19.769l-0.401 0.071c-17.28 4.48-31.36 8.96-45.44 11.52-13.44 3.84-31.36 7.68-53.12 12.8-21.37 5.8-39.869 13.008-57.369 21.899l1.689-0.779c-18.079 9.393-33.371 21.62-45.908 36.273l-0.172 0.207c-12.297 14.715-21.761 32.262-27.274 51.479l-0.246 1.001c-4.025 13.971-6.34 30.017-6.34 46.605 0 7.258 0.443 14.413 1.304 21.439l-0.084-0.843c6.007 55.096 34.646 102.514 76.285 133.395l0.515 0.365c42.728 32.794 96.955 52.553 155.798 52.553 2.153 0 4.299-0.026 6.439-0.079l-0.317 0.006c0.725 0.004 1.583 0.007 2.442 0.007 32.679 0 64.54-3.499 95.23-10.142l-2.952 0.536c30.754-6.641 57.906-16.347 83.284-29.070l-2.004 0.91 18.56-9.6-28.8-172.16-44.8 43.52c-15.729 14.948-34.166 27.231-54.47 36.014l-1.21 0.466c-19.673 9.452-42.77 14.975-67.158 14.975-26.427 0-51.339-6.485-73.232-17.95l0.87 0.415c-12.439-8.045-21.055-21.091-23.013-36.225l-0.027-0.255c-0.458-2.434-0.72-5.234-0.72-8.096 0-9.917 3.146-19.1 8.495-26.604l-0.095 0.14z" />
<glyph unicode="&#xe949;" glyph-name="badge-ultimate" data-tags="badge-ultimate" d="M891.52 741.12l-315.52 181.76c-18.339 10.861-40.42 17.279-64 17.279s-45.661-6.418-64.592-17.602l0.592 0.323-315.52-181.76c-38.493-22.522-63.95-63.642-64-110.713v-364.807c0.050-47.078 25.507-88.198 63.396-110.393l0.604-0.327 315.52-181.76c18.339-10.861 40.42-17.279 64-17.279s45.661 6.418 64.592 17.602l-0.592-0.323 315.52 181.76c38.493 22.522 63.95 63.642 64 110.713v364.807c-0.050 47.078-25.507 88.198-63.396 110.393l-0.604 0.327zM745.6 445.44c0.030-1.85 0.047-4.032 0.047-6.218 0-36.221-4.687-71.347-13.487-104.805l0.64 2.863c-9.415-33.528-26.748-62.255-49.899-85.099l-0.021-0.021c-20.236-19.905-44.838-35.437-72.233-45.024l-1.367-0.416c-27.512-9.368-59.204-14.776-92.159-14.776-2.025 0-4.046 0.020-6.062 0.061l0.301-0.005c-1.078-0.014-2.352-0.022-3.627-0.022-33.248 0-65.236 5.394-95.136 15.355l2.123-0.613c-29.022 10.172-53.837 25.918-74.259 46.099l0.019-0.019c-22.693 22.403-39.765 50.446-48.944 81.857l-0.336 1.343c-8.204 29.95-12.918 64.338-12.918 99.828 0 3.38 0.043 6.749 0.128 10.109l-0.010-0.497v231.040l137.6-46.080v-184.96c-0.047-1.983-0.074-4.319-0.074-6.661 0-18.453 1.657-36.519 4.829-54.057l-0.276 1.838c2.461-13.542 7.38-25.594 14.31-36.216l-0.23 0.376c6.549-10.139 15.983-17.921 27.135-22.268l0.385-0.132c14.64-5.639 31.579-8.906 49.28-8.906s34.64 3.267 50.245 9.23l-0.965-0.324c11.618 4.698 21.194 12.42 28.027 22.199l0.133 0.201c6.7 10.246 11.619 22.298 13.989 35.241l0.091 0.599c2.893 15.248 4.548 32.787 4.548 50.714 0 2.196-0.025 4.387-0.074 6.571l0.006-0.325v188.8l138.24 46.080z" />
<glyph unicode="&#xe94a;" glyph-name="balance" data-tags="balance" d="M840.832 250.368c126.72 0 205.824 50.688 177.408 152.064l-149.312 354.816h98.624v101.376h-312.96c-21.411 59.577-77.419 101.415-143.2 101.415s-121.789-41.839-142.867-100.357l-0.333-1.058h-313.088v-101.376h98.496l-149.184-354.816c-23.616-101.632 50.688-152.064 177.408-152.064s205.824 50.432 177.472 152.064l-149.312 354.816h158.080c15.706-43.369 49.324-76.925 91.677-92.21l1.059-0.334v-566.4h-456.384v-101.376h1013.824v101.376h-456.192v566.464c43.296 15.669 76.811 49.185 92.144 91.422l0.336 1.058h158.272l-149.376-354.816c-23.936-101.632 50.688-152.064 177.408-152.064zM262.4 402.432h-152.128l76.032 190.080zM515.84 757.248c-27.994 0-50.688 22.694-50.688 50.688s22.694 50.688 50.688 50.688c27.994 0 50.688-22.694 50.688-50.688v0c0-27.994-22.694-50.688-50.688-50.688-0.023 0-0.045 0-0.068 0h0.004zM845.312 592.512l76.288-190.080h-152.384z" />
<glyph unicode="&#xe94b;" glyph-name="bar-code" data-tags="bar-code" d="M448 832h32v-640h-32v640zM448 128h128v-64h-128v64zM320 832h64v-640h-64v640zM320 128h64v-64h-64v64zM192 832h64v-640h-64v640zM768 832h64v-640h-64v640zM0 832h128v-640h-128v640zM864 832h32v-640h-32v640zM0 128h64v-64h-64v64zM960 832h64v-640h-64v640zM960 128h64v-64h-64v64zM512 832h64v-640h-64v640zM640 832h32v-640h-32v640zM640 128h64v-64h-64v64zM192 128h64v-64h-64v64zM768 128h128v-64h-128v64z" />
<glyph unicode="&#xe94c;" glyph-name="bell" data-tags="bell" d="M614.4 38.4h-204.8c0-56.554 45.846-102.4 102.4-102.4s102.4 45.846 102.4 102.4v0zM512 960c-42.415 0-76.8-34.385-76.8-76.8v0-34.56c-147.771-36.192-255.742-167.371-256-323.811v-281.629l-102.4-102.4v-51.2h870.4v51.2l-102.4 102.4v281.6c-0.258 156.469-108.229 287.647-253.712 323.365l-2.288 0.475v34.56c0 42.415-34.385 76.8-76.8 76.8v0zM742.4 524.8v-332.8h-460.8v332.8c0 127.246 103.154 230.4 230.4 230.4s230.4-103.154 230.4-230.4v0z" />
<glyph unicode="&#xe94d;" glyph-name="bike" data-tags="bike" d="M759.488 810.688c0-42.415-34.385-76.8-76.8-76.8s-76.8 34.385-76.8 76.8c0 42.415 34.385 76.8 76.8 76.8s76.8-34.385 76.8-76.8zM213.312 0c117.809 0 213.312 95.503 213.312 213.312s-95.503 213.312-213.312 213.312c-117.809 0-213.312-95.503-213.312-213.312v0c0.036-117.794 95.518-213.276 213.308-213.312h0.004zM213.312 362.688c82.463 0 149.312-66.849 149.312-149.312s-66.849-149.312-149.312-149.312c-82.44 0-149.275 66.813-149.312 149.244v0.004c0 0.019 0 0.041 0 0.064 0 82.463 66.849 149.312 149.312 149.312v0zM334.912 470.528l134.4-86.528v-221.888h85.376v284.928l-96 71.36 98.944 99.392 82.368-114.304h170.688v85.312h-136.64l-82.496 139.328c-12.874 21.443-36.003 35.57-62.432 35.57-20.061 0-38.222-8.14-51.359-21.297l-157.761-157.633c-13.185-13.132-21.344-31.303-21.344-51.379 0-26.698 14.429-50.026 35.913-62.612l0.342-0.185zM810.688 426.688c-117.809 0-213.312-95.503-213.312-213.312s95.503-213.312 213.312-213.312c117.786 0 213.275 95.467 213.312 213.244v0.004c0 0.019 0 0.041 0 0.064 0 117.809-95.503 213.312-213.312 213.312v0zM810.688 64c-82.463 0-149.312 66.849-149.312 149.312s66.849 149.312 149.312 149.312c82.463 0 149.312-66.849 149.312-149.312v0c0-82.463-66.849-149.312-149.312-149.312v0z" />
<glyph unicode="&#xe94e;" glyph-name="block-spacing" data-tags="block-spacing" d="M0 960h1024v-128h-1024v128zM0 768h1024v-128h-1024v128zM0 64h1024v-128h-1024v128zM128 256l96-128 96 128h-64v192h64l-96 128-96-128h64v-192h-64z" />
<glyph unicode="&#xe94f;" glyph-name="blur" data-tags="blur" d="M673.664 124.608c0-29.762-24.126-53.888-53.888-53.888s-53.888 24.126-53.888 53.888c0 29.762 24.126 53.888 53.888 53.888s53.888-24.126 53.888-53.888zM673.664 771.392c0-29.762-24.126-53.888-53.888-53.888s-53.888 24.126-53.888 53.888c0 29.762 24.126 53.888 53.888 53.888s53.888-24.126 53.888-53.888zM700.608 555.776c0-44.642-36.19-80.832-80.832-80.832s-80.832 36.19-80.832 80.832c0 44.642 36.19 80.832 80.832 80.832s80.832-36.19 80.832-80.832zM646.72 933.056c0-14.881-12.063-26.944-26.944-26.944s-26.944 12.063-26.944 26.944c0 14.881 12.063 26.944 26.944 26.944s26.944-12.063 26.944-26.944zM1024 555.776c0-14.881-12.063-26.944-26.944-26.944s-26.944 12.063-26.944 26.944c0 14.881 12.063 26.944 26.944 26.944s26.944-12.063 26.944-26.944zM1024 340.224c0-14.881-12.063-26.944-26.944-26.944s-26.944 12.063-26.944 26.944c0 14.881 12.063 26.944 26.944 26.944s26.944-12.063 26.944-26.944zM889.28 771.392c0-29.762-24.126-53.888-53.888-53.888s-53.888 24.126-53.888 53.888c0 29.762 24.126 53.888 53.888 53.888s53.888-24.126 53.888-53.888zM889.28 340.224c0-29.762-24.126-53.888-53.888-53.888s-53.888 24.126-53.888 53.888c0 29.762 24.126 53.888 53.888 53.888s53.888-24.126 53.888-53.888zM889.28 124.608c0-29.762-24.126-53.888-53.888-53.888s-53.888 24.126-53.888 53.888c0 29.762 24.126 53.888 53.888 53.888s53.888-24.126 53.888-53.888zM889.28 555.776c0-29.762-24.126-53.888-53.888-53.888s-53.888 24.126-53.888 53.888c0 29.762 24.126 53.888 53.888 53.888s53.888-24.126 53.888-53.888zM646.72-37.056c0-14.881-12.063-26.944-26.944-26.944s-26.944 12.063-26.944 26.944c0 14.881 12.063 26.944 26.944 26.944s26.944-12.063 26.944-26.944zM700.608 340.224c0-44.642-36.19-80.832-80.832-80.832s-80.832 36.19-80.832 80.832c0 44.642 36.19 80.832 80.832 80.832s80.832-36.19 80.832-80.832zM431.168-37.056c0-14.881-12.063-26.944-26.944-26.944s-26.944 12.063-26.944 26.944c0 14.881 12.063 26.944 26.944 26.944s26.944-12.063 26.944-26.944zM242.496 771.392c0-29.762-24.126-53.888-53.888-53.888s-53.888 24.126-53.888 53.888c0 29.762 24.126 53.888 53.888 53.888s53.888-24.126 53.888-53.888zM242.496 340.224c0-29.762-24.126-53.888-53.888-53.888s-53.888 24.126-53.888 53.888c0 29.762 24.126 53.888 53.888 53.888s53.888-24.126 53.888-53.888zM242.496 555.776c0-29.762-24.126-53.888-53.888-53.888s-53.888 24.126-53.888 53.888c0 29.762 24.126 53.888 53.888 53.888s53.888-24.126 53.888-53.888zM53.888 340.224c0-14.881-12.063-26.944-26.944-26.944s-26.944 12.063-26.944 26.944c0 14.881 12.063 26.944 26.944 26.944s26.944-12.063 26.944-26.944zM431.168 933.056c0-14.881-12.063-26.944-26.944-26.944s-26.944 12.063-26.944 26.944c0 14.881 12.063 26.944 26.944 26.944s26.944-12.063 26.944-26.944zM53.888 555.776c0-14.881-12.063-26.944-26.944-26.944s-26.944 12.063-26.944 26.944c0 14.881 12.063 26.944 26.944 26.944s26.944-12.063 26.944-26.944zM242.496 124.608c0-29.762-24.126-53.888-53.888-53.888s-53.888 24.126-53.888 53.888c0 29.762 24.126 53.888 53.888 53.888s53.888-24.126 53.888-53.888zM485.056 340.224c0-44.642-36.19-80.832-80.832-80.832s-80.832 36.19-80.832 80.832c0 44.642 36.19 80.832 80.832 80.832s80.832-36.19 80.832-80.832zM485.056 555.776c0-44.642-36.19-80.832-80.832-80.832s-80.832 36.19-80.832 80.832c0 44.642 36.19 80.832 80.832 80.832s80.832-36.19 80.832-80.832zM458.112 124.608c0-29.762-24.126-53.888-53.888-53.888s-53.888 24.126-53.888 53.888c0 29.762 24.126 53.888 53.888 53.888s53.888-24.126 53.888-53.888zM458.112 771.392c0-29.762-24.126-53.888-53.888-53.888s-53.888 24.126-53.888 53.888c0 29.762 24.126 53.888 53.888 53.888s53.888-24.126 53.888-53.888z" />
<glyph unicode="&#xe950;" glyph-name="bolt" data-tags="bolt" d="M256 473.6c11.072-30.912 238.208-94.976 245.632-112.576s-206.656-417.728-194.432-425.024 467.84 453.696 460.8 486.4-239.936 99.52-245.76 112.576 206.592 415.936 194.56 425.024-471.744-455.552-460.8-486.4z" />
<glyph unicode="&#xe951;" glyph-name="book-closed" data-tags="book-closed" d="M832 960h-640c-70.605-0.218-127.782-57.395-128-127.979v-768.021c0.218-70.605 57.395-127.782 127.979-128h768.021v896h-64v-832h-672c-53.019 0-96 42.981-96 96s42.981 96 96 96v0h608zM192 96c0-17.673 14.327-32 32-32v0h608v64h-608c-17.673 0-32-14.327-32-32v0z" />
<glyph unicode="&#xe952;" glyph-name="bookmark" data-tags="bookmark" d="M192-64l320 320 320-320v1024h-640v-1024z" />
<glyph unicode="&#xe953;" glyph-name="bookmarks" data-tags="bookmarks" d="M128 64l64 64v768h576v64h-640v-896zM256-64l320 320 320-320v896h-640v-896z" />
<glyph unicode="&#xe954;" glyph-name="book-open" data-tags="book-open" d="M960 832h-384l-64-64-64 64h-384c-35.346 0-64-28.654-64-64v0-576c0-35.346 28.654-64 64-64v0h384l64-64 64 64h384c35.346 0 64 28.654 64 64v0 576c0 35.346-28.654 64-64 64v0zM64 192v576h357.76l44.8-45.44 13.44-13.248v-517.312zM960 192h-416v517.312l13.44 13.248 44.8 45.44h357.76zM640 640h256v-64h-256v64zM640 512h256v-64h-256v64zM640 384h256v-64h-256v64zM128 384h256v-64h-256v64zM128 512h256v-64h-256v64zM128 640h256v-64h-256v64z" />
<glyph unicode="&#xe955;" glyph-name="books" data-tags="books" d="M224 64c17.673 0 32 14.327 32 32v0 704c0 17.673-14.327 32-32 32v0h-192c-17.673 0-32-14.327-32-32v0-704c0-17.673 14.327-32 32-32v0zM64 704h128v-64h-128zM544 64c17.673 0 32 14.327 32 32v0 704c0 17.673-14.327 32-32 32v0h-192c-17.673 0-32-14.327-32-32v0-704c0-17.673 14.327-32 32-32v0zM384 704h128v-64h-128zM816.384 65.28l184.256 53.952c13.392 4.025 22.981 16.244 22.981 30.703 0 3.199-0.47 6.289-1.343 9.204l0.058-0.227-197.696 675.648c-4.025 13.392-16.244 22.981-30.703 22.981-3.199 0-6.289-0.47-9.204-1.343l0.227 0.058-184.256-53.952c-13.392-4.025-22.981-16.244-22.981-30.703 0-3.199 0.47-6.289 1.343-9.204l-0.058 0.227 197.76-675.648c4.031-13.383 16.245-22.964 30.698-22.964 3.178 0 6.247 0.463 9.145 1.326l-0.226-0.058zM667.328 688.512l122.816 35.968 17.984-61.44-122.816-35.84z" />
<glyph unicode="&#xe956;" glyph-name="boost" data-tags="boost" d="M704 768c-7.296 0-14.144-1.664-21.312-2.176-3.158 1.28-6.816 2.069-10.645 2.175l-0.043 0.001h-512c-17.673 0-32-14.327-32-32s14.327-32 32-32v0h353.856c-24.446-18.468-45.532-39.553-63.416-63.195l-0.584-0.805h-417.856c-17.673 0-32-14.327-32-32s14.327-32 32-32v0h379.072c-8.39-18.266-15.515-39.659-20.298-61.921l-0.374-2.079h-262.4c-35.346 0-64-28.654-64-64s28.654-64 64-64v0h262.4c5.134-24.338 12.239-45.733 21.415-65.99l-0.807 1.99h-379.008c-17.673 0-32-14.327-32-32s14.327-32 32-32v0h417.536c18.47-24.445 39.555-45.53 63.195-63.416l0.805-0.584h-353.536c-17.673 0-32-14.327-32-32s14.327-32 32-32v0h512c3.872 0.107 7.53 0.896 10.9 2.251l-0.212-0.075c7.168-0.512 14.016-2.176 21.312-2.176 176.731 0 320 143.269 320 320s-143.269 320-320 320v0zM704 256c-106.039 0-192 85.961-192 192s85.961 192 192 192c106.039 0 192-85.961 192-192v0c0-106.039-85.961-192-192-192v0zM832 448c0-70.692-57.308-128-128-128s-128 57.308-128 128c0 70.692 57.308 128 128 128s128-57.308 128-128z" />
<glyph unicode="&#xe957;" glyph-name="box" data-tags="box" d="M483.2-55.040c8.048-5.61 18.032-8.963 28.8-8.963s20.752 3.353 28.966 9.072l-0.166-0.109 405.12 227.2c16.050 9.094 26.737 26.003 26.88 45.42v460.82c-0.143 19.437-10.83 36.346-26.62 45.304l-0.26 0.136-405.12 227.2c-8.048 5.61-18.032 8.963-28.8 8.963s-20.752-3.353-28.966-9.072l0.166 0.109-405.12-227.2c-16.050-9.094-26.737-26.003-26.88-45.42v-460.82c0.143-19.437 10.83-36.346 26.62-45.304l0.26-0.136zM870.4 247.68l-307.2-172.8v343.68l307.2 172.16zM512 849.92l305.28-171.52-101.12-56.96-301.44 174.080zM311.040 737.28l301.44-174.080-100.48-56.32-305.28 171.52zM153.6 590.72l307.2-172.16v-343.68l-307.2 172.8z" />
<glyph unicode="&#xe958;" glyph-name="braces" data-tags="braces" d="M896 640v192c-0.218 70.605-57.395 127.782-127.979 128h-128.021v-128h128v-256c0.218-70.605 57.395-127.782 127.979-128h0.021c-70.605-0.218-127.782-57.395-128-127.979v-256.021h-128v-128h128c68.48 17.28 128 57.6 128 128v192c0 70.4-6.4 128 64 128h64v128h-64c-70.4 0-64 57.6-64 128zM128 256v-192c0-70.4 59.52-110.72 128-128h128v128h-128v256c-0.218 70.605-57.395 127.782-127.979 128h-0.021c70.605 0.218 127.782 57.395 128 127.979v256.021h128v128h-128c-70.605-0.218-127.782-57.395-128-127.979v-192.021c0-70.4 6.4-128-64-128h-64v-128h64c70.4 0 64-57.6 64-128z" />
<glyph unicode="&#xe959;" glyph-name="brakets" data-tags="brakets" d="M320 64h-192v768h192v128h-320v-1024h320v128zM704 832h192v-768h-192v-128h320v1024h-320v-128z" />
<glyph unicode="&#xe95a;" glyph-name="briefcase" data-tags="briefcase" d="M576 832h-128c-35.346 0-64-28.654-64-64v0-64h-256c-35.346 0-64-28.654-64-64v0-512c0-35.346 28.654-64 64-64v0h768c35.346 0 64 28.654 64 64v0 512c0 35.346-28.654 64-64 64v0h-256v64c0 35.346-28.654 64-64 64v0zM448 768h128v-64h-128zM832 448v192h64v-256h-320v-64h-128v64h-320v256h64v-192z" />
<glyph unicode="&#xe95b;" glyph-name="brightness-high" data-tags="brightness-high" d="M783.552 85.952c11.654-12.054 27.97-19.538 46.034-19.538 35.346 0 64 28.654 64 64 0 18.064-7.484 34.38-19.52 46.017l-0.018 0.017-45.248 45.248c-11.654 12.054-27.97 19.538-46.034 19.538-35.346 0-64-28.654-64-64 0-18.064 7.484-34.38 19.52-46.017l0.018-0.017zM64 512c-35.346 0-64-28.654-64-64s28.654-64 64-64v0h64c35.346 0 64 28.654 64 64s-28.654 64-64 64v0zM874.048 810.048c-11.581 11.578-27.578 18.738-45.248 18.738s-33.667-7.161-45.248-18.739l-45.248-45.248c-12.054-11.654-19.538-27.97-19.538-46.034 0-35.346 28.654-64 64-64 18.064 0 34.38 7.484 46.017 19.52l0.017 0.018 45.248 45.248c11.578 11.581 18.738 27.578 18.738 45.248s-7.161 33.667-18.739 45.248v0zM576 832v64c0 35.346-28.654 64-64 64s-64-28.654-64-64v0-64c0-35.346 28.654-64 64-64s64 28.654 64 64v0zM576 0v64c0 35.346-28.654 64-64 64s-64-28.654-64-64v0-64c0-35.346 28.654-64 64-64s64 28.654 64 64v0zM285.696 674.304c11.578 11.581 18.738 27.578 18.738 45.248s-7.161 33.667-18.739 45.248l-45.248 45.248c-11.497 11.116-27.179 17.966-44.462 17.966-35.346 0-64-28.654-64-64 0-17.282 6.85-32.964 17.983-44.48l-0.017 0.018 45.248-45.248c11.581-11.578 27.578-18.738 45.248-18.738s33.667 7.161 45.248 18.739v0zM149.952 85.952c11.581-11.578 27.578-18.738 45.248-18.738s33.667 7.161 45.248 18.739l45.248 45.248c12.054 11.654 19.538 27.97 19.538 46.034 0 35.346-28.654 64-64 64-18.064 0-34.38-7.484-46.017-19.52l-0.017-0.018-45.248-45.248c-11.578-11.581-18.738-27.578-18.738-45.248s7.161-33.667 18.739-45.248v0zM960 512h-64c-35.346 0-64-28.654-64-64s28.654-64 64-64v0h64c35.346 0 64 28.654 64 64s-28.654 64-64 64v0zM768 448c0 141.385-114.615 256-256 256s-256-114.615-256-256c0-141.385 114.615-256 256-256v0c141.385 0 256 114.615 256 256v0zM512 288c-88.366 0-160 71.634-160 160s71.634 160 160 160c88.366 0 160-71.634 160-160v0c0-88.366-71.634-160-160-160v0z" />
<glyph unicode="&#xe95c;" glyph-name="brightness-low" data-tags="brightness-low" d="M783.552 85.952c11.654-12.054 27.97-19.538 46.034-19.538 35.346 0 64 28.654 64 64 0 18.064-7.484 34.38-19.52 46.017l-0.018 0.017-45.248 45.248c-11.654 12.054-27.97 19.538-46.034 19.538-35.346 0-64-28.654-64-64 0-18.064 7.484-34.38 19.52-46.017l0.018-0.017zM576 832v64c0 35.346-28.654 64-64 64s-64-28.654-64-64v0-64c0-35.346 28.654-64 64-64s64 28.654 64 64v0zM0 448c0-35.346 28.654-64 64-64v0h64c35.346 0 64 28.654 64 64s-28.654 64-64 64v0h-64c-35.346 0-64-28.654-64-64v0zM874.048 810.048c-11.581 11.578-27.578 18.738-45.248 18.738s-33.667-7.161-45.248-18.739l-45.248-45.248c-12.054-11.654-19.538-27.97-19.538-46.034 0-35.346 28.654-64 64-64 18.064 0 34.38 7.484 46.017 19.52l0.017 0.018 45.248 45.248c11.578 11.581 18.738 27.578 18.738 45.248s-7.161 33.667-18.739 45.248v0zM149.952 85.952c11.581-11.578 27.578-18.738 45.248-18.738s33.667 7.161 45.248 18.739l45.248 45.248c12.054 11.654 19.538 27.97 19.538 46.034 0 35.346-28.654 64-64 64-18.064 0-34.38-7.484-46.017-19.52l-0.017-0.018-45.248-45.248c-11.578-11.581-18.738-27.578-18.738-45.248s7.161-33.667 18.739-45.248v0zM960 512h-64c-35.346 0-64-28.654-64-64s28.654-64 64-64v0h64c35.346 0 64 28.654 64 64s-28.654 64-64 64v0zM448 64v-64c0-35.346 28.654-64 64-64s64 28.654 64 64v0 64c0 35.346-28.654 64-64 64s-64-28.654-64-64v0zM768 448c0 141.385-114.615 256-256 256s-256-114.615-256-256c0-141.385 114.615-256 256-256v0c141.385 0 256 114.615 256 256v0zM512 288v320c88.366 0 160-71.634 160-160s-71.634-160-160-160v0zM285.696 674.304c11.578 11.581 18.738 27.578 18.738 45.248s-7.161 33.667-18.739 45.248l-45.248 45.248c-11.497 11.116-27.179 17.966-44.462 17.966-35.346 0-64-28.654-64-64 0-17.282 6.85-32.964 17.983-44.48l-0.017 0.018 45.248-45.248c11.581-11.578 27.578-18.738 45.248-18.738s33.667 7.161 45.248 18.739v0z" />
<glyph unicode="&#xe95d;" glyph-name="brush" data-tags="brush" d="M269.44 367.104c-0.057 0-0.125 0-0.192 0-89.179 0-161.472-72.293-161.472-161.472 0-0.067 0-0.135 0-0.202v0.010c-0.887-59.163-48.613-106.889-107.692-107.775l-0.084-0.001c50.553-64.673 128.044-106.269 215.307-107.773l0.245-0.003c0.019 0 0.042 0 0.064 0 119.011 0 215.488 96.477 215.488 215.488 0 0.022 0 0.045 0 0.067v-0.003c0 0.057 0 0.125 0 0.192 0 89.179-72.293 161.472-161.472 161.472-0.067 0-0.135 0-0.202 0h0.010zM936 944.256c-9.719 9.726-23.149 15.742-37.984 15.742s-28.265-6.016-37.984-15.742l-482.816-482.88 148.16-148.16 482.816 482.816c9.726 9.719 15.742 23.149 15.742 37.984s-6.016 28.265-15.742 37.984v0z" />
<glyph unicode="&#xe95e;" glyph-name="brush-big" data-tags="brush-big" d="M806.4 334.848c11.578 11.581 18.738 27.578 18.738 45.248s-7.161 33.667-18.739 45.248l-84.48 84.48 222.080 222.336c9.784 9.728 15.839 23.197 15.839 38.080s-6.055 28.352-15.836 38.078l-71.682 71.682c-9.728 9.784-23.197 15.839-38.080 15.839s-28.352-6.055-38.078-15.836l-222.338-222.338-84.48 84.736c-11.581 11.578-27.578 18.738-45.248 18.738s-33.667-7.161-45.248-18.739v0l-135.744-136 407.296-407.296zM36.79 380.111l181.019 181.019 45.255-45.255-181.019-181.019-45.255 45.255zM127.278 289.568l181.013 181.026 45.256-45.253-181.013-181.026-45.256 45.253zM217.852 199.164l181.019 181.019 45.255-45.255-181.019-181.019-45.255 45.255zM308.385 108.585l181.013 181.026 45.256-45.253-181.013-181.026-45.256 45.253zM398.851 18.063l181.019 181.019 45.255-45.255-181.019-181.019-45.255 45.255z" />
<glyph unicode="&#xe95f;" glyph-name="bug" data-tags="bug" d="M80 352h144v-32c-0.001-0.209-0.001-0.456-0.001-0.703 0-45.326 11.866-87.88 32.66-124.727l-0.659 1.27-128-128c-7.982-8.549-12.883-20.063-12.883-32.723 0-26.51 21.49-48 48-48 12.659 0 24.174 4.901 32.751 12.908l-0.028-0.026 122.24 122.24c35.615-29.484 79.95-49.648 128.604-56.176l1.316-0.144v446.080h128v-446.080c49.97 6.672 94.305 26.836 130.35 56.665l-0.43-0.345 122.24-122.24c8.549-7.982 20.063-12.883 32.723-12.883 26.51 0 48 21.49 48 48 0 12.659-4.901 24.174-12.908 32.751l0.026-0.028-128 128c20.135 35.577 32.001 78.131 32.001 123.457 0 0.247 0 0.494-0.001 0.741v-0.038 32h144c26.51 0 48 21.49 48 48s-21.49 48-48 48v0h-144v156.16l128 128c8.705 8.67 14.091 20.666 14.091 33.92s-5.386 25.25-14.089 33.918l-0.002 0.002c-8.712 8.613-20.695 13.933-33.92 13.933s-25.208-5.32-33.925-13.937l0.005 0.004-160-160h-376.32l-160 160c-8.67 8.705-20.666 14.091-33.92 14.091s-25.25-5.386-33.918-14.089l-0.002-0.002c-8.597-8.719-13.907-20.699-13.907-33.92s5.309-25.201 13.912-33.926l-0.005 0.006 128-128v-156.16h-144c-26.51 0-48-21.49-48-48s21.49-48 48-48v0zM512 896c-106.039 0-192-85.961-192-192v0h384c0 106.039-85.961 192-192 192v0z" />
<glyph unicode="&#xe960;" glyph-name="bulb" data-tags="bulb" d="M512-64c70.605 0.218 127.782 57.395 128 127.979v0.021h-256c0.218-70.605 57.395-127.782 127.979-128h0.021zM738.56 413.44c2.893 2.992 5.639 6.184 8.193 9.531l0.191 0.261c52.661 56.865 84.966 133.24 84.966 217.161 0 152.434-106.583 279.974-249.291 312.161l-2.139 0.406c-20.512 4.314-44.146 6.869-68.347 7.039l-0.133 0.001c-0.052 0-0.115 0-0.177 0-176.731 0-320-143.269-320-320 0-92.070 38.883-175.058 101.124-233.439l0.173-0.161c54.407-48.075 89.067-117.418 90.874-194.885l0.006-0.315v-83.2h256v80.64c-0.035 1.548-0.054 3.372-0.054 5.2 0 72.569 31.017 137.894 80.517 183.44l0.177 0.161c8.44 7.496 16.186 15.1 23.54 23.072l0.204 0.224c-3.2-3.584-6.4-7.232-9.664-10.496 1.473 0.903 2.737 1.963 3.826 3.183l0.014 0.017zM679.040 446.080c-63.419-57.494-103.085-140.193-103.085-232.156 0-1.858 0.016-3.712 0.048-5.563l-0.004 0.278v-16.64h-128v19.2c-1.934 96.092-44.161 181.952-110.421 241.655l-0.299 0.265c-49.931 46.834-81.038 113.224-81.038 186.88 0 141.3 114.477 255.862 255.745 256h0.013c19.724-0.017 38.949-2.114 57.479-6.083l-1.799 0.323c115.603-26.285 200.592-128.184 200.592-249.932 0-77.526-34.461-147.003-88.901-193.949l-0.331-0.279z" />
<glyph unicode="&#xe961;" glyph-name="cake" data-tags="cake" d="M488.96 755.2c2.185-0.275 4.714-0.431 7.279-0.431 34.038 0 61.632 27.594 61.632 61.632 0 2.565-0.157 5.094-0.461 7.577l0.030-0.298c-5.213 54.399-30.515 102.060-68.295 136.156l-0.185 0.164c-22.4-68.48-67.84-97.92-67.84-147.84s30.72-56.96 67.84-56.96zM102.4 197.76v-261.76h819.2v261.76c55.131 37.373 90.882 99.728 90.882 170.432 0 113.199-91.639 204.994-204.778 205.247h-250.264v136.32h-136.32v-136.32h-204.8c-113.164-0.254-204.802-92.049-204.802-205.248 0-70.705 35.752-133.060 90.163-169.972l0.719-0.46zM216.32 481.92h591.36c62.602-0.182 113.28-50.973 113.28-113.6 0-62.74-50.86-113.6-113.6-113.6s-113.6 50.86-113.6 113.6c0 0.112 0 0.225 0 0.337v-0.017h-67.84c0-62.916-51.004-113.92-113.92-113.92s-113.92 51.004-113.92 113.92v0h-67.84c0.001-0.19 0.002-0.415 0.002-0.64 0-62.916-51.004-113.92-113.92-113.92s-113.92 51.004-113.92 113.92c0 62.916 51.003 113.919 113.918 113.92v0z" />
<glyph unicode="&#xe962;" glyph-name="calculator" data-tags="calculator" d="M64-64h320c35.346 0 64 28.654 64 64v0 320c0 35.346-28.654 64-64 64v0h-320c-35.346 0-64-28.654-64-64v0-320c0-35.346 28.654-64 64-64v0zM64 192h128v128h64v-128h128v-64h-128v-128h-64v128h-128zM64 512h320c35.346 0 64 28.654 64 64v0 320c0 35.346-28.654 64-64 64v0h-320c-35.346 0-64-28.654-64-64v0-320c0-35.346 28.654-64 64-64v0zM64 768h320v-64h-320zM960 960h-320c-35.649-1.364-64.031-30.592-64.031-66.45 0-0.714 0.011-1.425 0.034-2.133l-0.003 0.103v-887.040c-0.020-0.605-0.031-1.316-0.031-2.030 0-35.858 28.382-65.087 63.907-66.447l0.124-0.004h320c35.649 1.364 64.031 30.592 64.031 66.45 0 0.714-0.011 1.425-0.034 2.133l0.003-0.103v887.040c0.020 0.605 0.031 1.316 0.031 2.030 0 35.858-28.382 65.087-63.907 66.447l-0.124 0.004zM960 320h-320v64h320zM960 512h-320v64h320z" />
<glyph unicode="&#xe963;" glyph-name="calendar" data-tags="calendar" d="M768 896h64v-128h-64v128zM192 896h64v-128h-64v128zM960 832h-64v-96c0-17.673-14.327-32-32-32v0h-128c-17.673 0-32 14.327-32 32v0 96h-384v-96c0-17.673-14.327-32-32-32v0h-128c-17.673 0-32 14.327-32 32v0 96h-64c-35.346 0-64-28.654-64-64v0-704c0-35.346 28.654-64 64-64v0h896c35.346 0 64 28.654 64 64v0 704c0 35.346-28.654 64-64 64v0zM960 64h-896v576h896zM320 128h64v448h-256v-448h192zM192 256v256h128v-320h-128zM448 192h64v-64h-64v64zM576 192h64v-64h-64v64zM704 320h64v-64h-64v64zM576 320h64v-64h-64v64zM448 320h64v-64h-64v64zM448 448h64v-64h-64v64zM576 448h64v-64h-64v64zM704 448h64v-64h-64v64zM704 576h64v-64h-64v64zM576 576h64v-64h-64v64zM832 576h64v-64h-64v64zM832 448h64v-64h-64v64zM832 320h64v-64h-64v64zM704 192h64v-64h-64v64z" />
<glyph unicode="&#xe964;" glyph-name="camcoder" data-tags="camcoder" d="M960 736c-0.421 0.012-0.915 0.019-1.412 0.019-8.322 0-16.201-1.895-23.23-5.278l0.321 0.139-168.96-70.4c-10.262 96.778-91.452 171.521-190.098 171.521-0.219 0-0.437 0-0.656-0.001h-383.966c-106.039 0-192-85.961-192-192v0-384c0-106.039 85.961-192 192-192v0h384c0.168-0.001 0.366-0.001 0.564-0.001 98.659 0 179.863 74.737 190.083 170.684l0.072 0.837 168.96-70.4c6.711-3.243 14.595-5.138 22.922-5.138 0.492 0 0.982 0.007 1.47 0.020l-0.072-0.002c35.346 0 64 28.654 64 64v0 448c0 35.346-28.654 64-64 64v0zM672 256c0-53.019-42.981-96-96-96v0h-384c-53.019 0-96 42.981-96 96v0 384c0 53.019 42.981 96 96 96v0h384c53.019 0 96-42.981 96-96v0zM928 272l-160 66.56v218.88l160 66.56zM320 576c0-35.346-28.654-64-64-64s-64 28.654-64 64c0 35.346 28.654 64 64 64s64-28.654 64-64z" />
<glyph unicode="&#xe965;" glyph-name="camcoder-off" data-tags="camcoder-off" d="M960 736c-0.515 0.021-1.12 0.033-1.727 0.033-6.063 0-11.848-1.187-17.137-3.342l0.304 0.109 72.96 72.96-72.32 72.32-860.16-860.16 72.32-72.32 118.4 118.4h303.36c0.168-0.001 0.366-0.001 0.564-0.001 98.659 0 179.863 74.737 190.083 170.684l0.072 0.837 168.96-70.4c6.711-3.243 14.595-5.138 22.922-5.138 0.492 0 0.982 0.007 1.47 0.020l-0.072-0.002c35.346 0 64 28.654 64 64v0 448c0 35.346-28.654 64-64 64v0zM576 160h-207.36l303.36 303.36v-207.36c0-53.019-42.981-96-96-96v0zM928 272l-160 66.56v218.88l160 66.56zM116.48 197.12c-12.761 15.896-20.481 36.314-20.481 58.535 0 0.121 0 0.243 0.001 0.364v-0.019 384c0 53.019 42.981 96 96 96v0h384c0.103 0 0.224 0.001 0.345 0.001 22.221 0 42.639-7.72 58.719-20.623l-0.184 0.143 68.48 68.48c-33.591 29.8-78.059 48.001-126.779 48.001-0.204 0-0.408 0-0.613-0.001h-383.968c-106.039 0-192-85.961-192-192v0-384c0.090-48.796 18.533-93.267 48.793-126.893l-0.153 0.173zM320 576c0-35.346-28.654-64-64-64s-64 28.654-64 64c0 35.346 28.654 64 64 64s64-28.654 64-64z" />
<glyph unicode="&#xe966;" glyph-name="camera" data-tags="camera" d="M832 832h-128c0 35.346-28.654 64-64 64v0h-256c-35.346 0-64-28.654-64-64v0h-128c-106.039 0-192-85.961-192-192v0-384c0-106.039 85.961-192 192-192v0h640c106.039 0 192 85.961 192 192v0 384c0 106.039-85.961 192-192 192v0zM928 256c0-53.019-42.981-96-96-96v0h-640c-53.019 0-96 42.981-96 96v0 384c0 53.019 42.981 96 96 96v0h640c53.019 0 96-42.981 96-96v0zM512 640c-106.039 0-192-85.961-192-192s85.961-192 192-192c106.039 0 192 85.961 192 192v0c0 106.039-85.961 192-192 192v0zM512 352c-53.019 0-96 42.981-96 96s42.981 96 96 96c53.019 0 96-42.981 96-96v0c0-53.019-42.981-96-96-96v0zM896 640c0-35.346-28.654-64-64-64s-64 28.654-64 64c0 35.346 28.654 64 64 64s64-28.654 64-64z" />
<glyph unicode="&#xe967;" glyph-name="camera-off" data-tags="camera-off" d="M1014.4 805.76l-72.32 72.32-860.16-860.16 72.32-72.32 118.4 118.4h559.36c106.039 0 192 85.961 192 192v0 384c-0.096 48.795-18.538 93.264-48.793 126.893l0.153-0.173zM928 640v-384c0-53.019-42.981-96-96-96v0h-463.36l101.12 101.12c12.669-3.205 27.225-5.069 42.207-5.12h0.033c106.039 0 192 85.961 192 192v0c-0.052 15.015-1.916 29.571-5.384 43.492l0.264-1.252 96.64 96.64h0.64l0.896 0.896c9.702-7.079 21.782-11.444 34.865-11.774l0.079-0.002c35.346 0 64 28.654 64 64v0c-0.332 13.162-4.697 25.242-11.899 35.122l0.123-0.178 0.896 0.896v0.64l22.4 22.4c12.761-15.896 20.481-36.314 20.481-58.535 0-0.121 0-0.243-0.001-0.364v0.019zM116.48 197.12c-12.761 15.896-20.481 36.314-20.481 58.535 0 0.121 0 0.243 0.001 0.364v-0.019 384c0 53.019 42.981 96 96 96v0h463.36l96 96h-47.36c0 35.346-28.654 64-64 64v0h-256c-35.346 0-64-28.654-64-64v0h-128c-106.039 0-192-85.961-192-192v0-384c0.090-48.796 18.533-93.267 48.793-126.893l-0.153 0.173zM320 448c0.051-15.015 1.915-29.571 5.384-43.491l-0.264 1.251 229.12 229.12c-12.669 3.205-27.225 5.069-42.207 5.12h-0.033c-106.039 0-192-85.961-192-192v0z" />
<glyph unicode="&#xe968;" glyph-name="car" data-tags="car" d="M930.88 500.352h-93.056l-139.648 186.176h-465.472l-139.584-186.176c-0.095 0-0.208 0.001-0.32 0.001-51.252 0-92.8-41.548-92.8-92.8 0-0.090 0-0.18 0-0.271v0.014-139.648h93.12c0-77.125 62.523-139.648 139.648-139.648s139.648 62.523 139.648 139.648v0h279.296c0-77.125 62.523-139.648 139.648-139.648s139.648 62.523 139.648 139.648v0h92.992v139.648c0 0.076 0 0.166 0 0.257 0 51.252-41.548 92.8-92.8 92.8-0.113 0-0.225 0-0.338-0.001h0.017zM232.704 197.824c-38.563 0-69.824 31.261-69.824 69.824s31.261 69.824 69.824 69.824c38.563 0 69.824-31.261 69.824-69.824v0c0-38.563-31.261-69.824-69.824-69.824v0zM465.472 500.352h-285.632l87.68 139.648h197.952zM512 500.352v139.648h151.36l87.68-139.648zM791.296 197.824c-38.563 0-69.824 31.261-69.824 69.824s31.261 69.824 69.824 69.824c38.563 0 69.824-31.261 69.824-69.824v0c0-38.563-31.261-69.824-69.824-69.824v0z" />
<glyph unicode="&#xe969;" glyph-name="card-back" data-tags="card-back" d="M962.368 855.744l-66.368 27.456v-448.832l120.96 290.944c4.571 11.095 7.225 23.975 7.225 37.475 0 41.597-25.197 77.309-61.16 92.707l-0.657 0.25zM811.328 860.224c-0.325 54.996-44.839 99.487-99.812 99.776h-72.348l172.16-415.040zM7.616 671.616l246.336-595.2c15.498-35.558 49.853-60.206 90.094-61.373l0.146-0.003c0.501-0.010 1.091-0.015 1.683-0.015 13.503 0 26.345 2.831 37.964 7.933l-0.607-0.238 367.296 151.552c35.554 15.040 60.174 49.369 60.799 89.521l0.001 0.079c0.045 1.088 0.070 2.365 0.070 3.648 0 12.973-2.613 25.336-7.342 36.591l0.232-0.622-246.976 595.136c-15.478 36.091-50.544 60.991-91.471 61.376h-0.049c-13.641-0.016-26.618-2.839-38.39-7.922l0.63 0.242-366.656-151.552c-36.235-15.232-61.217-50.433-61.217-91.469 0-13.592 2.741-26.545 7.7-38.334l-0.243 0.651z" />
<glyph unicode="&#xe96a;" glyph-name="card-front" data-tags="card-front" d="M962.368 855.68l-66.368 5.12v-426.816l120.96 291.776c4.532 11.028 7.163 23.829 7.163 37.245 0 41.505-25.181 77.128-61.098 92.427l-0.656 0.248zM696.768 960h-72.256l171.52-415.296v316.096c-0.289 54.692-44.566 98.947-99.24 99.2h-0.024zM557.312 899.2c-15.384 35.8-50.211 60.48-90.839 60.8h-0.041c-13.809-0.052-27-2.63-39.156-7.295l0.756 0.255-366.656-152.32c-36.302-15.1-61.361-50.28-61.361-91.313 0-13.703 2.795-26.753 7.845-38.611l-0.244 0.645 246.336-595.712c15.671-35.312 49.978-59.72 90.104-60.797l0.136-0.003c0.244-0.002 0.532-0.003 0.821-0.003 13.96 0 27.316 2.584 39.617 7.298l-0.758-0.255 366.656 152.32c35.543 15.053 60.156 49.374 60.799 89.519l0.001 0.081c0.046 1.102 0.072 2.395 0.072 3.695 0 12.979-2.614 25.348-7.344 36.608l0.232-0.623zM346.112 112l-247.616 597.824 367.936 152.256 247.616-597.632z" />
<glyph unicode="&#xe96b;" glyph-name="card-horizontal" data-tags="card-horizontal" d="M960 768h-896c-35.346 0-64-28.654-64-64v0-512c0-35.346 28.654-64 64-64v0h896c35.346 0 64 28.654 64 64v0 512c0 35.346-28.654 64-64 64v0zM960 192h-896v512h896zM704 640h192v-192h-192v192zM128 576h384v-64h-384v64zM128 448h320v-64h-320v64zM128 320h384v-64h-384v64z" />
<glyph unicode="&#xe96c;" glyph-name="card-vertical" data-tags="card-vertical" d="M256 960c-35.346 0-64-28.654-64-64v0-896c0-35.346 28.654-64 64-64v0h512c35.346 0 64 28.654 64 64v0 896c0 35.346-28.654 64-64 64v0zM768 0h-512v896h512zM512 832h192v-192h-192v192zM320 384h384v-64h-384v64zM320 256h320v-64h-320v64zM320 128h384v-64h-384v64z" />
<glyph unicode="&#xe96d;" glyph-name="carousel" data-tags="carousel" d="M64 784h128c35.346 0 64-28.654 64-64v-544c0-35.346-28.654-64-64-64h-128c-35.346 0-64 28.654-64 64v544c0 35.346 28.654 64 64 64zM384 896h256c35.346 0 64-28.654 64-64v-768c0-35.346-28.654-64-64-64h-256c-35.346 0-64 28.654-64 64v768c0 35.346 28.654 64 64 64zM832 784h128c35.346 0 64-28.654 64-64v-544c0-35.346-28.654-64-64-64h-128c-35.346 0-64 28.654-64 64v544c0 35.346 28.654 64 64 64z" />
<glyph unicode="&#xe96e;" glyph-name="check" data-tags="check" d="M384 336l-160 160-96-96 256-256 512 512-96 96-416-416z" />
<glyph unicode="&#xe96f;" glyph-name="checkbox-checked" data-tags="checkbox-checked" d="M896 960h-768c-70.605-0.218-127.782-57.395-128-127.979v-768.021c0.218-70.605 57.395-127.782 127.979-128h768.021c70.605 0.218 127.782 57.395 128 127.979v768.021c-0.218 70.605-57.395 127.782-127.979 128h-0.021zM896 64h-768v768h768zM829.44 600.96l-90.88 90.88-306.56-307.2-146.56 147.2-90.88-90.88 237.44-236.8 397.44 396.8z" />
<glyph unicode="&#xe970;" glyph-name="checkbox-empty" data-tags="checkbox-empty" d="M896 960h-768c-70.605-0.218-127.782-57.395-128-127.979v-768.021c0.218-70.605 57.395-127.782 127.979-128h768.021c70.605 0.218 127.782 57.395 128 127.979v768.021c-0.218 70.605-57.395 127.782-127.979 128h-0.021zM896 64h-768v768h768z" />
<glyph unicode="&#xe971;" glyph-name="checkbox-full-checked" data-tags="checkbox-full-checked" d="M896 960h-768c-70.605-0.218-127.782-57.395-128-127.979v-768.021c0.218-70.605 57.395-127.782 127.979-128h768.021c70.605 0.218 127.782 57.395 128 127.979v768.021c-0.218 70.605-57.395 127.782-127.979 128h-0.021zM432 204.16l-237.44 236.8 90.88 90.88 146.56-147.2 306.56 307.2 90.88-90.88z" />
<glyph unicode="&#xe972;" glyph-name="checkbox-half-checked" data-tags="checkbox-half-checked" d="M896 960h-768c-70.605-0.218-127.782-57.395-128-127.979v-768.021c0.218-70.605 57.395-127.782 127.979-128h768.021c70.605 0.218 127.782 57.395 128 127.979v768.021c-0.218 70.605-57.395 127.782-127.979 128h-0.021zM896 64h-768v768h768zM256 512h512v-128h-512v128z" />
<glyph unicode="&#xe973;" glyph-name="check-double" data-tags="check-double" d="M0.036 374.37l62.090 62.090 246.413-246.413-62.090-62.090-246.413 246.413zM495.36 252.8l-183.68 183.68-62.72-62.080 246.4-246.4 528.64 528.64-62.080 62.080-466.56-465.92zM433.28 439.68l62.080-62.72 279.68 279.68-62.72 62.080-279.040-279.040z" />
<glyph unicode="&#xe974;" glyph-name="check-single" data-tags="check-single" d="M246.4 252.8l-183.68 183.68h-0.64l-62.080-62.080 246.4-246.4 528.64 528.64-62.72 62.080-465.92-465.92z" />
<glyph unicode="&#xe975;" glyph-name="city" data-tags="city" d="M320 640h-256v-640h256zM256 64h-128v128h128zM256 256h-128v128h128zM256 448h-128v128h128zM384 768v-768h256v768l-128 128zM576 64h-128v128h128zM576 256h-128v128h128zM576 448h-128v128h128zM576 640h-128v128h128zM960 448h-256v-448h256zM896 64h-128v128h128zM896 256h-128v128h128z" />
<glyph unicode="&#xe976;" glyph-name="clear-format" data-tags="clear-format" d="M590.080 704l-46.080-107.52 134.4-134.4 103.040 241.92h242.56v192h-768v-11.52l180.48-180.48h153.6zM288 0h192l100.48 234.24 243.2-243.2 81.28 81.92-823.68 823.040-81.28-81.28 446.080-446.080-158.080-368.64z" />
<glyph unicode="&#xe977;" glyph-name="clipboard" data-tags="clipboard" d="M256 192h448v-64h-448v64zM256 448h352v-64h-352v64zM256 576h512v-64h-512v64zM256 320h352v-64h-352v64zM832-64c17.454 0.882 33.085 8.033 44.828 19.227l-0.028-0.027c11.508 11.505 18.761 27.265 19.198 44.718l0.002 0.082v768c0 35.346-28.654 64-64 64v0h-192c0 70.692-57.308 128-128 128s-128-57.308-128-128v0h-192c-35.346 0-64-28.654-64-64v0-768c0-35.346 28.654-64 64-64v0zM320 768h64c35.346 0 64 28.654 64 64v0c0 35.346 28.654 64 64 64s64-28.654 64-64v0c0-35.346 28.654-64 64-64v0h64c35.346 0 64-28.654 64-64v0h-512c0 35.346 28.654 64 64 64v0zM192 640h640v-640h-640z" />
<glyph unicode="&#xe978;" glyph-name="clipboard-in" data-tags="clipboard-in" d="M192 320h160v-64h-160v64zM192 448h160v-64h-160v64zM832 448v320c0 35.346-28.654 64-64 64v0h-192c0 70.692-57.308 128-128 128s-128-57.308-128-128v0h-192c-35.346 0-64-28.654-64-64v0-768c0-35.346 28.654-64 64-64v0h640c17.454 0.882 33.085 8.033 44.828 19.227l-0.028-0.027c11.508 11.505 18.761 27.265 19.198 44.718l0.002 0.082v192h-64v-192h-640v640h640v-192zM192 704c0 35.346 28.654 64 64 64v0h64c35.346 0 64 28.654 64 64v0c0 35.346 28.654 64 64 64s64-28.654 64-64v0c0-35.346 28.654-64 64-64v0h64c35.346 0 64-28.654 64-64v0zM640 512l-192-192 192-192v128h320v128h-320v128zM192 192h256v-64h-256v64zM192 576h320v-64h-320v64z" />
<glyph unicode="&#xe979;" glyph-name="clock" data-tags="clock" d="M512 960c-282.77 0-512-229.23-512-512s229.23-512 512-512c282.77 0 512 229.23 512 512v0c0 282.77-229.23 512-512 512v0zM512 64c-212.077 0-384 171.923-384 384s171.923 384 384 384c212.077 0 384-171.923 384-384v0c0-212.077-171.923-384-384-384v0zM576 704h-128v-284.16l128-119.040 79.36-74.24 87.68 93.44-167.040 156.16v227.84z" />
<glyph unicode="&#xe97a;" glyph-name="cloud" data-tags="cloud" d="M768 640c0 28.16-58.24 192-288 192-154.88 0-288-122.88-288-256-1.942 0.073-4.224 0.114-6.514 0.114-102.504 0-185.6-83.096-185.6-185.6 0-2.291 0.042-4.572 0.124-6.843l-0.009 0.329c-0.134-2.623-0.211-5.696-0.211-8.787 0-101.302 82.122-183.424 183.424-183.424 3.091 0 6.163 0.076 9.216 0.228l-0.43-0.017h576c133.12 0 256 74.24 256 224 0 156.16-122.88 224-256 224zM768 275.2h-576c-1.978-0.136-4.287-0.214-6.614-0.214-56.554 0-102.4 45.846-102.4 102.4 0 2.327 0.078 4.636 0.23 6.924l-0.017-0.31c-0.070 1.427-0.11 3.1-0.11 4.782 0 57.508 46.62 104.128 104.128 104.128 1.682 0 3.354-0.040 5.017-0.119l-0.235 0.009h83.2v83.2c0 88.96 99.84 172.8 204.8 172.8 163.2 0 200.32-99.2 204.8-115.2v-76.8h83.2c51.84 0 172.8-14.080 172.8-140.8 0-133.76-144-140.8-172.8-140.8z" />
<glyph unicode="&#xe97b;" glyph-name="cloud-down" data-tags="cloud-down" d="M768 640c0 28.16-58.24 192-288 192-154.88 0-288-122.88-288-256-1.942 0.073-4.224 0.114-6.514 0.114-102.504 0-185.6-83.096-185.6-185.6 0-2.291 0.042-4.572 0.124-6.843l-0.009 0.329c-0.134-2.623-0.211-5.696-0.211-8.787 0-101.302 82.122-183.424 183.424-183.424 3.091 0 6.163 0.076 9.216 0.228l-0.43-0.017h192v83.2h-192c-1.978-0.136-4.287-0.214-6.614-0.214-56.554 0-102.4 45.846-102.4 102.4 0 2.327 0.078 4.636 0.23 6.924l-0.017-0.31c-0.070 1.427-0.11 3.1-0.11 4.782 0 57.508 46.62 104.128 104.128 104.128 1.682 0 3.354-0.040 5.017-0.119l-0.235 0.009h83.2v83.2c0 88.96 99.84 172.8 204.8 172.8 163.2 0 200.32-99.2 204.8-115.2v-76.8h83.2c51.84 0 172.8-14.080 172.8-140.8 0-133.76-144-140.8-172.8-140.8h-128v-83.2h128c133.12 0 256 74.24 256 224 0 156.16-122.88 224-256 224zM448 448v-320h-128l192-192 192 192h-128v320h-128z" />
<glyph unicode="&#xe97c;" glyph-name="cloud-offline" data-tags="cloud-offline" d="M768 640c0 28.16-58.24 192-288 192-154.88 0-288-122.88-288-256-1.942 0.073-4.224 0.114-6.514 0.114-102.504 0-185.6-83.096-185.6-185.6 0-2.291 0.042-4.572 0.124-6.843l-0.009 0.329c-0.134-2.623-0.211-5.696-0.211-8.787 0-101.302 82.122-183.424 183.424-183.424 3.091 0 6.163 0.076 9.216 0.228l-0.43-0.017h64v83.2h-64c-1.978-0.136-4.287-0.214-6.614-0.214-56.554 0-102.4 45.846-102.4 102.4 0 2.327 0.078 4.636 0.23 6.924l-0.017-0.31c-0.070 1.427-0.11 3.1-0.11 4.782 0 57.508 46.62 104.128 104.128 104.128 1.682 0 3.354-0.040 5.017-0.119l-0.235 0.009h83.2v83.2c0 88.96 99.84 172.8 204.8 172.8 163.2 0 200.32-99.2 204.8-115.2v-76.8h83.2c51.84 0 172.8-14.080 172.8-140.8 0-133.76-144-140.8-172.8-140.8v-83.2c133.12 0 256 74.24 256 224 0 156.16-122.88 224-256 224zM392.512 64l119.488 119.488 119.488-119.488 67.904 67.904-119.488 119.488 119.488 119.552-67.904 67.84-119.488-119.488-119.488 119.488-67.904-67.84 119.488-119.552-119.488-119.488 67.904-67.904z" />
<glyph unicode="&#xe97d;" glyph-name="cloud-sync" data-tags="cloud-sync" d="M576 256v-128h-128l192-192 192 192h-128v128h-128zM768 640c0 28.16-58.24 192-288 192-154.88 0-288-122.88-288-256-1.942 0.073-4.224 0.114-6.514 0.114-102.504 0-185.6-83.096-185.6-185.6 0-2.291 0.042-4.572 0.124-6.843l-0.009 0.329c-0.134-2.623-0.211-5.696-0.211-8.787 0-101.302 82.122-183.424 183.424-183.424 3.091 0 6.163 0.076 9.216 0.228l-0.43-0.017h64v83.2h-64c-1.978-0.136-4.287-0.214-6.614-0.214-56.554 0-102.4 45.846-102.4 102.4 0 2.327 0.078 4.636 0.23 6.924l-0.017-0.31c-0.070 1.427-0.11 3.1-0.11 4.782 0 57.508 46.62 104.128 104.128 104.128 1.682 0 3.354-0.040 5.017-0.119l-0.235 0.009h83.2v83.2c0 88.96 99.84 172.8 204.8 172.8 163.2 0 200.32-99.2 204.8-115.2v-76.8h83.2c51.84 0 172.8-14.080 172.8-140.8 0-133.76-144-140.8-172.8-140.8v-83.2c133.12 0 256 74.24 256 224 0 156.16-122.88 224-256 224zM448 192v128h128l-192 192-192-192h128v-128h128z" />
<glyph unicode="&#xe97e;" glyph-name="cloud-up" data-tags="cloud-up" d="M768 640c0 28.16-58.24 192-288 192-154.88 0-288-122.88-288-256-1.942 0.073-4.224 0.114-6.514 0.114-102.504 0-185.6-83.096-185.6-185.6 0-2.291 0.042-4.572 0.124-6.843l-0.009 0.329c-0.134-2.623-0.211-5.696-0.211-8.787 0-101.302 82.122-183.424 183.424-183.424 3.091 0 6.163 0.076 9.216 0.228l-0.43-0.017h192v83.2h-192c-1.978-0.136-4.287-0.214-6.614-0.214-56.554 0-102.4 45.846-102.4 102.4 0 2.327 0.078 4.636 0.23 6.924l-0.017-0.31c-0.070 1.427-0.11 3.1-0.11 4.782 0 57.508 46.62 104.128 104.128 104.128 1.682 0 3.354-0.040 5.017-0.119l-0.235 0.009h83.2v83.2c0 88.96 99.84 172.8 204.8 172.8 163.2 0 200.32-99.2 204.8-115.2v-76.8h83.2c51.84 0 172.8-14.080 172.8-140.8 0-133.76-144-140.8-172.8-140.8h-128v-83.2h128c133.12 0 256 74.24 256 224 0 156.16-122.88 224-256 224zM576 64v320h128l-192 192-192-192h128v-320h128z" />
<glyph unicode="&#xe97f;" glyph-name="clubs" data-tags="clubs" d="M786.752 567.168v0zM237.248 148.48c59.124 0.124 112.356 25.244 149.71 65.348l0.114 0.124c22.782 22.27 48.481 41.71 76.43 57.656l1.842 0.968c0.13-3.584 0.203-7.795 0.203-12.023 0-117.343-56.88-221.401-144.573-286.107l-0.974-0.686v-37.76h384v37.76c-88.669 65.43-145.546 169.517-145.546 286.889 0 4.217 0.073 8.416 0.219 12.597l-0.017-0.607c29.806-16.873 55.508-36.317 78.335-58.685l-0.063 0.061c37.493-40.192 90.71-65.298 149.792-65.472h0.032c115.617 0 209.344 93.727 209.344 209.344s-93.727 209.344-209.344 209.344v0c-0.111 0-0.242 0-0.374 0-58.864 0-111.928-24.834-149.286-64.596l-0.1-0.108c-21.506-20.643-45.726-38.725-72.002-53.596l-1.79-0.932c19.034 59.093 49.778 109.807 89.742 151.637l-0.142-0.149c39.282 38.199 63.653 91.554 63.653 150.601 0 114.026-90.886 206.825-204.169 209.905l-0.285 0.006c-113.514-1.906-204.803-94.375-204.803-208.164 0-0.415 0.001-0.829 0.004-1.243v0.064c-0.001-0.284-0.002-0.62-0.002-0.957 0-59.090 24.52-112.454 63.939-150.471l0.063-0.060c39.807-41.583 70.548-92.19 88.826-148.417l0.774-2.751c-28.057 15.902-52.274 34.064-73.906 54.893l0.114-0.109c-37.436 39.681-90.376 64.385-149.086 64.385-0.237 0-0.474 0-0.71-0.001h0.037c-115.617 0-209.344-93.727-209.344-209.344s93.727-209.344 209.344-209.344v0z" />
<glyph unicode="&#xe980;" glyph-name="color-filter" data-tags="color-filter" d="M394.24 232.32c-15.046 18.507-28.109 39.569-38.313 62.197l-0.727 1.803c-9.996 18.429-18.144 39.784-23.343 62.268l-0.337 1.732c-5.399 18.854-9.062 40.738-10.211 63.286l-0.029 0.714c-0.853 5.866-1.34 12.638-1.34 19.524 0 1.462 0.022 2.918 0.066 4.369l-0.005-0.213c-0.007 0.756-0.012 1.65-0.012 2.545 0 13.322 0.935 26.426 2.742 39.25l-0.17-1.476c2.737 23.934 7.461 45.617 14.112 66.438l-0.672-2.438c7.349 24.432 16.705 45.645 28.279 65.402l-0.759-1.402c12.781 24.402 27.682 45.429 44.987 64.205l-0.187-0.205c21.115 24.943 45.597 46.167 72.937 63.241l1.303 0.759c8.456 5.902 18.115 11.453 28.252 16.147l1.188 0.493c-46.308 24.597-101.249 39.040-159.563 39.040-0.154 0-0.307 0-0.461 0h0.024c-194.404 0-352-157.596-352-352s157.596-352 352-352v0c0.129 0 0.283 0 0.437 0 58.314 0 113.256 14.443 161.441 39.947l-1.878-0.906c-20.252 10.066-37.667 21.137-53.787 33.784l0.667-0.504c-24.688 18.463-45.98 39.552-64.069 63.221l-0.571 0.779zM615.68 680.32c-11.891 14.515-24.903 27.324-39.155 38.638l-0.525 0.402c-27.898-9.72-52.071-22.952-73.569-39.49l0.609 0.45zM629.76 232.32h-147.84c26.408-23.758 57.704-42.691 92.129-55.068l1.951-0.612c20.204 16.434 37.879 34.718 53.188 54.894l0.572 0.786zM660.48 616.32h-221.44c-13.97-18.424-25.832-39.556-34.598-62.23l-0.602-1.77h284.16c-7.349 24.432-16.705 45.645-28.279 65.402l0.759-1.402zM692.48 360.32h-295.040c7.99-24.413 18.185-45.592 30.746-65.105l-0.666 1.105h241.92c9.475 18.371 17.393 39.714 22.659 62.080l0.381 1.92zM704 448c0.007 0.756 0.012 1.65 0.012 2.545 0 13.322-0.935 26.426-2.742 39.25l0.17-1.476h-314.24c-1.945-12.054-3.105-26.012-3.199-40.223l-0.001-0.097c0-7.68 0.64-16 1.28-23.68h317.44c0.853 5.866 1.34 12.638 1.34 19.524 0 1.462-0.022 2.918-0.066 4.369l0.005-0.213zM672 800c-0.129 0-0.283 0-0.437 0-58.314 0-113.256-14.443-161.441-39.947l1.878 0.906c11.325-5.187 20.984-10.739 30.071-17.055l-0.631 0.415c13.062-7.964 24.351-16.198 34.914-25.256l-0.354 0.296c28.574 10.541 61.575 16.64 96 16.64s67.426-6.098 97.981-17.273l-1.981 0.634c112.564-40.865 191.523-146.891 191.523-271.36s-78.959-230.495-189.52-270.723l-2.003-0.637c-7.701-3.021-17.117-5.883-26.792-8.061l-1.368-0.259c-20.367-5.286-43.749-8.321-67.84-8.321s-47.473 3.035-69.784 8.743l1.944-0.422c-11.043 2.437-20.459 5.299-29.562 8.793l1.402-0.473c-3.226-3.016-6.784-5.761-10.588-8.149l-0.292-0.171c-15.453-12.143-32.868-23.214-51.348-32.476l-1.772-0.804c46.308-24.597 101.249-39.040 159.563-39.040 0.154 0 0.307 0 0.461 0h-0.024c194.404 0 352 157.596 352 352s-157.596 352-352 352v0z" />
<glyph unicode="&#xe981;" glyph-name="column" data-tags="column" d="M128 960h128c35.346 0 64-28.654 64-64v-896c0-35.346-28.654-64-64-64h-128c-35.346 0-64 28.654-64 64v896c0 35.346 28.654 64 64 64zM448 960h128c35.346 0 64-28.654 64-64v-896c0-35.346-28.654-64-64-64h-128c-35.346 0-64 28.654-64 64v896c0 35.346 28.654 64 64 64zM768 960h128c35.346 0 64-28.654 64-64v-896c0-35.346-28.654-64-64-64h-128c-35.346 0-64 28.654-64 64v896c0 35.346 28.654 64 64 64z" />
<glyph unicode="&#xe982;" glyph-name="compound" data-tags="compound" d="M213.376 19.2c42.861 25.112 71.189 70.943 71.189 123.39 0 9.188-0.869 18.173-2.53 26.877l0.141-0.891 115.968 66.944c-22.808 21.565-39.46 49.417-47.187 80.782l-0.237 1.138-115.904-66.944c-24.715 21.262-57.116 34.208-92.539 34.208-78.575 0-142.272-63.697-142.272-142.272s63.697-142.272 142.272-142.272c26.177 0 50.702 7.069 71.772 19.403l-0.672-0.364zM512 924.736c-0.033 0-0.072 0-0.111 0-78.504 0-142.144-63.64-142.144-142.144 0-61.521 39.084-113.914 93.777-133.703l0.99-0.313v-133.504c14.169 4.352 30.456 6.859 47.328 6.859s33.159-2.506 48.509-7.167l-1.181 0.308v133.504c55.683 20.102 94.767 72.495 94.767 134.016 0 78.43-63.521 142.025-141.923 142.144h-0.011zM606.912 573.376v-81.152c39.528-27.856 66.146-71.752 70.359-122.019l0.041-0.605 70.4-40.64 1.536 27.008c-0.029 96.68-57.868 179.845-140.827 216.807l-1.509 0.601zM952.768 265.408c-20.41 11.965-44.947 19.031-71.135 19.031-35.372 0-67.734-12.891-92.642-34.232l0.193 0.161-115.776 66.816c-7.991-32.591-24.712-60.513-47.534-82.036l-0.082-0.076 116.032-66.88c-1.501-7.756-2.359-16.676-2.359-25.797 0-78.539 63.669-142.208 142.208-142.208s142.208 63.669 142.208 142.208c0 52.259-28.189 97.934-70.191 122.65l-0.666 0.362zM275.2 355.968l1.472-26.496 70.4 40.512c4.381 50.703 30.971 94.417 69.875 121.825l0.525 0.351v81.088c-84.424-37.538-142.236-120.653-142.272-217.275v-0.005zM512 118.912c0.18 0 0.394-0.001 0.607-0.001 52.777 0 101.509 17.322 140.82 46.591l-0.627-0.446-70.4 40.512c-20.627-9.885-44.839-15.659-70.4-15.659s-49.773 5.774-71.403 16.090l1.003-0.431-70.4-40.576c38.674-28.784 87.381-46.081 140.127-46.081 0.237 0 0.473 0 0.71 0.001h-0.037zM606.976 355.904c0-52.348-42.436-94.784-94.784-94.784s-94.784 42.436-94.784 94.784c0 52.348 42.436 94.784 94.784 94.784s94.784-42.436 94.784-94.784z" />
<glyph unicode="&#xe983;" glyph-name="console-error" data-tags="console-error" d="M512 896c-247.424 0-448-200.576-448-448s200.576-448 448-448c247.424 0 448 200.576 448 448v0c0 247.424-200.576 448-448 448v0zM783.488 267.008l-90.496-90.496-180.992 180.992-180.992-180.992-90.496 90.496 180.992 180.992-180.992 180.992 90.496 90.496 180.992-180.992 180.992 180.992 90.496-90.496-180.992-180.992z" />
<glyph unicode="&#xe984;" glyph-name="console-help" data-tags="console-help" d="M960 451.968c0 247.424-200.576 448-448 448s-448-200.576-448-448v0q0-3.968 0-8c0-247.424 200.576-448 448-448s448 200.576 448 448v0q0 4.032 0 8zM576 128h-128v128h128zM655.104 448c-4.79-5.383-9.721-10.314-14.924-14.947l-0.18-0.157c-17.977-16.176-39.26-29.095-62.664-37.592l-1.336-0.424v-74.88h-128v128c-0.009 0.404-0.015 0.881-0.015 1.359 0 34.604 28.052 62.656 62.656 62.656 0.478 0 0.954-0.005 1.429-0.016l-0.071 0.001c0.227-0.003 0.495-0.005 0.763-0.005 35.77 0 64.768 28.998 64.768 64.768s-28.998 64.768-64.768 64.768c-35.77 0-64.768-28.998-64.768-64.768 0-0.268 0.002-0.537 0.005-0.804v0.041h-128c0 0.1 0 0.219 0 0.338 0 49.154 18.558 93.974 49.049 127.835l-0.153-0.172c4.786 5.355 9.717 10.265 14.918 14.878l0.186 0.162c33.811 30.34 78.739 48.892 128 48.892s94.189-18.552 128.179-49.050l-0.179 0.158c5.387-4.775 10.318-9.685 14.952-14.867l0.152-0.173c30.34-33.811 48.892-78.739 48.892-128s-18.552-94.189-49.050-128.179l0.158 0.179z" />
<glyph unicode="&#xe985;" glyph-name="console-info" data-tags="console-info" d="M512 896c-247.424 0-448-200.576-448-448s200.576-448 448-448c247.424 0 448 200.576 448 448v0c0 247.424-200.576 448-448 448v0zM576 128h-128v448h128zM576 640h-128v128h128z" />
<glyph unicode="&#xe986;" glyph-name="console-warn" data-tags="console-warn" d="M18.304 32.64c11.568-19.086 32.118-31.714 55.639-32h876.841c0.151-0.001 0.329-0.002 0.507-0.002 23.31 0 43.638 12.768 54.371 31.692l0.162 0.31c5.338 9.385 8.485 20.618 8.485 32.587 0 11.498-2.905 22.319-8.020 31.767l0.175-0.353-438.4 766.72c-11.381 19.271-32.045 31.994-55.68 31.994s-44.299-12.723-55.516-31.694l-0.164-0.3-438.4-766.72c-5.433-9.169-8.644-20.209-8.644-32s3.211-22.831 8.806-32.295l-0.162 0.295zM448.384 576.64h128v-256h-128zM448.384 256.64h128v-128h-128z" />
<glyph unicode="&#xe987;" glyph-name="cookie" data-tags="cookie" d="M967.104 561.792h-113.792v56.896c0.008 0.346 0.012 0.755 0.012 1.164 0 30.787-24.957 55.744-55.744 55.744-0.409 0-0.818-0.004-1.225-0.013l0.061 0.001h-113.728v56.832c0.008 0.346 0.012 0.755 0.012 1.164 0 30.787-24.957 55.744-55.744 55.744-0.409 0-0.818-0.004-1.225-0.013l0.061 0.001h-56.896v113.792c0.008 0.346 0.012 0.755 0.012 1.164 0 30.787-24.957 55.744-55.744 55.744-0.409 0-0.818-0.004-1.225-0.013l0.061 0.001c-0.002 0-0.004 0-0.006 0-282.77 0-512-229.23-512-512s229.23-512 512-512c282.77 0 512 229.23 512 512 0 30.547-2.675 60.469-7.804 89.544l0.45-3.080c-10.902 16.142-28.921 26.759-49.451 27.326l-0.085 0.002zM199.104 391.104c-47.117 0-85.312 38.195-85.312 85.312s38.195 85.312 85.312 85.312c47.117 0 85.312-38.195 85.312-85.312v0c0-47.117-38.195-85.312-85.312-85.312v0zM284.416 704c0 47.116 38.195 85.312 85.312 85.312s85.312-38.195 85.312-85.312c0-47.094-38.159-85.276-85.244-85.312h-0.004c-0.019 0-0.041 0-0.064 0-47.117 0-85.312 38.195-85.312 85.312v0zM455.104 49.792c-47.117 0-85.312 38.195-85.312 85.312s38.195 85.312 85.312 85.312c47.117 0 85.312-38.195 85.312-85.312v0c0-47.117-38.195-85.312-85.312-85.312v0zM483.52 334.208c-47.089 0.036-85.248 38.218-85.248 85.312 0 47.117 38.195 85.312 85.312 85.312 47.094 0 85.276-38.159 85.312-85.244v-0.004c0-0.019 0-0.041 0-0.064 0-47.117-38.195-85.312-85.312-85.312v0zM768 220.416c-47.117 0-85.312 38.195-85.312 85.312s38.195 85.312 85.312 85.312c47.117 0 85.312-38.195 85.312-85.312v0c0-47.117-38.195-85.312-85.312-85.312v0z" />
<glyph unicode="&#xe988;" glyph-name="copy" data-tags="copy" d="M256-64h640c35.346 0 64 28.654 64 64v0 768c0 35.346-28.654 64-64 64v0h-640c-35.346 0-64-28.654-64-64v0-768c0-35.346 28.654-64 64-64v0zM256 768h640v-768h-640zM64 896v-704h64v704h576v64h-576c-35.346 0-64-28.654-64-64v0z" />
<glyph unicode="&#xe989;" glyph-name="copyleft" data-tags="copyleft" d="M512 960c-282.77 0-512-229.23-512-512s229.23-512 512-512c282.77 0 512 229.23 512 512v0c0 282.77-229.23 512-512 512v0zM512 32c-229.75 0-416 186.25-416 416s186.25 416 416 416c229.75 0 416-186.25 416-416v0c0-229.75-186.25-416-416-416v0zM512 736c-0.264 0.001-0.577 0.001-0.889 0.001-79.233 0-150.92-32.304-202.61-84.461l-0.021-0.021 79.36-79.36c31.496 32.008 75.282 51.841 123.7 51.841 0.162 0 0.324 0 0.485-0.001h-0.025c97.202 0 176-78.798 176-176s-78.798-176-176-176v0c-0.137 0-0.298-0.001-0.46-0.001-48.418 0-92.204 19.833-123.677 51.818l-0.023 0.023-79.36-79.36c52.13-52.193 124.181-84.48 203.773-84.48 159.058 0 288 128.942 288 288s-128.942 288-288 288c-0.089 0-0.178 0-0.267 0h0.014z" />
<glyph unicode="&#xe98a;" glyph-name="copyright" data-tags="copyright" d="M512 960c-282.77 0-512-229.23-512-512s229.23-512 512-512c282.77 0 512 229.23 512 512v0c0 282.77-229.23 512-512 512v0zM512 32c-229.75 0-416 186.25-416 416s186.25 416 416 416c229.75 0 416-186.25 416-416v0c0-229.75-186.25-416-416-416v0zM512 624c0.137 0 0.298 0.001 0.46 0.001 48.418 0 92.204-19.833 123.677-51.818l0.023-0.023 79.36 79.36c-52.13 52.193-124.181 84.48-203.773 84.48-159.058 0-288-128.942-288-288s128.942-288 288-288c0.089 0 0.178 0 0.267 0h-0.014c0.264-0.001 0.577-0.001 0.889-0.001 79.233 0 150.92 32.304 202.61 84.461l0.021 0.021-79.36 79.36c-31.496-32.008-75.282-51.841-123.7-51.841-0.162 0-0.324 0-0.485 0.001h0.025c-97.202 0-176 78.798-176 176s78.798 176 176 176v0z" />
<glyph unicode="&#xe98b;" glyph-name="credit-card" data-tags="credit-card" d="M960 832h-896c-35.346 0-64-28.654-64-64v0-576c0-35.346 28.654-64 64-64v0h896c35.346 0 64 28.654 64 64v0 576c0 35.346-28.654 64-64 64v0zM960 192h-896v384h896zM960 704h-896v64h896zM128 448h640v-64h-640v64zM128 320h256v-64h-256v64z" />
<glyph unicode="&#xe98c;" glyph-name="crop" data-tags="crop" d="M256 256c0-35.346 28.654-64 64-64v0h384v-192h64v192h192v64h-640v640h-64v-192h-192v-64h192zM704 320h64v320c0 35.346-28.654 64-64 64v0h-320v-64h320z" />
<glyph unicode="&#xe98d;" glyph-name="cross" data-tags="cross" d="M828.8 855.296l-316.8-316.8-316.8 316.8-90.496-90.496 316.8-316.8-316.8-316.8 90.496-90.496 316.8 316.8 316.8-316.8 90.496 90.496-316.8 316.8 316.8 316.8-90.496 90.496z" />
<glyph unicode="&#xe98e;" glyph-name="crosshair" data-tags="crosshair" d="M512 960c-282.77 0-512-229.23-512-512s229.23-512 512-512c282.77 0 512 229.23 512 512v0c0 282.77-229.23 512-512 512v0zM576 37.44v218.56h-128v-218.56c-178.625 28.769-317.792 167.935-346.242 344.174l-0.318 2.386h218.56v128h-218.56c28.769 178.625 167.935 317.792 344.174 346.242l2.386 0.318v-218.56h128v218.56c178.625-28.769 317.792-167.935 346.242-344.174l0.318-2.386h-218.56v-128h218.56c-28.769-178.625-167.935-317.792-344.174-346.242l-2.386-0.318z" />
<glyph unicode="&#xe98f;" glyph-name="cube" data-tags="cube" d="M51.2 678.4v-460.8c0.143-19.437 10.83-36.346 26.62-45.304l0.26-0.136 405.12-227.2c8.048-5.61 18.032-8.963 28.8-8.963s20.752 3.353 28.966 9.072l-0.166-0.109 405.12 227.2c16.050 9.094 26.737 26.003 26.88 45.42v460.82c-0.143 19.437-10.83 36.346-26.62 45.304l-0.26 0.136-405.12 227.2c-8.048 5.61-18.032 8.963-28.8 8.963s-20.752-3.353-28.966-9.072l0.166 0.109-405.12-227.2c-16.050-9.094-26.737-26.003-26.88-45.42v-0.020zM870.4 247.68l-307.2-172.8v343.68l307.2 172.16zM512 849.92l305.28-171.52-305.28-171.52-305.28 171.52zM153.6 590.72l307.2-172.16v-343.68l-307.2 172.8z" />
<glyph unicode="&#xe990;" glyph-name="currency-bdt" data-tags="currency-bdt" d="M202.88 447.36h115.84l0.64-58.88 3.2-166.4c0.317-61.962 25.438-117.996 65.931-158.731l-0.011 0.011c16.605-17.049 36.077-31.203 57.657-41.703l1.223-0.537c19.985-10.543 43.367-17.647 68.158-19.853l0.706-0.051c2.355-0.072 5.126-0.114 7.905-0.114 44.296 0 86.148 10.465 123.217 29.058l-1.587-0.721c40.284 19.19 74.891 42.95 105.196 71.258l-0.236-0.218c3.84 3.2 7.68 7.040 11.52 10.88 33.016 32.677 60.636 70.725 81.457 112.74l1.103 2.46c19.392 38.861 30.921 84.593 31.359 132.974l0.001 0.146c-0.131 25.882-4.336 50.736-12.004 74.017l0.484-1.697c-6.354 25.604-16.948 48.065-31.119 67.784l0.399-0.584c-13.482 19.983-30.838 36.318-51.103 48.239l-0.737 0.401c-19.47 12.072-43.088 19.227-68.378 19.227-0.936 0-1.87-0.010-2.802-0.029l0.139 0.002c-0.358 0.003-0.781 0.005-1.204 0.005-15.77 0-30.993-2.34-45.341-6.693l1.105 0.288c-14.947-4.058-27.986-10.661-39.299-19.392l0.259 0.192c-11.509-9.043-20.794-20.375-27.265-33.355l-0.255-0.565c-6.506-13.919-10.303-30.222-10.303-47.411 0-1.332 0.023-2.659 0.068-3.981l-0.005 0.192c-0.423-4.020-0.665-8.684-0.665-13.405 0-32.375 11.356-62.099 30.301-85.404l-0.196 0.249c21.927-18.516 50.508-29.771 81.718-29.771 3.224 0 6.42 0.12 9.584 0.356l-0.422-0.025 21.76 1.92c-1.945-29.221-10.491-56.074-24.147-79.592l0.467 0.872c-0.64-0.64-0.64-1.92-1.28-2.56-15.043-27.017-32.239-50.331-51.992-71.201l0.152 0.161c-17.277-19.069-37.408-35.141-59.803-47.646l-1.189-0.61c-13.425-7.121-29.351-11.303-46.253-11.303-26.451 0-50.51 10.24-68.429 26.972l0.058-0.054c-7.746 7.329-14.344 15.762-19.567 25.070l-0.273 0.53c-5.613 8.377-9.603 18.318-11.275 29.028l-0.053 0.412v247.040h108.8l-54.976 117.12h-62.72l-2.56 108.16c-0.085 84.432-46.579 157.985-115.343 196.534l-1.137 0.586c-22.057 11.924-47.81 20.298-75.129 23.579l-1.031 0.101c-8.811 0.98-19.028 1.539-29.374 1.539-7.907 0-15.738-0.327-23.48-0.967l1.014 0.068v-117.12c3.819 0.395 8.252 0.62 12.738 0.62 11.156 0 21.987-1.393 32.328-4.015l-0.906 0.195c46.122-12.842 79.402-54.473 79.402-103.876 0-1.056-0.015-2.109-0.045-3.158l0.004 0.154 2.56-102.4h-169.6z" />
<glyph unicode="&#xe991;" glyph-name="currency-btc" data-tags="currency-btc" d="M700.608 481.6c134.4 11.2 134.4 280-111.808 280v134.4h-89.6v-134.4h-44.8v134.4h-89.6v-134.4h-179.2v-89.6h67.2c24.768 0 67.2-44.8 67.2-44.8v-358.4c0-24.742-20.058-44.8-44.8-44.8h-44.8l-22.4-89.6h156.8v-134.4h89.6v134.4h44.8v-134.4h89.6v134.4c335.808 0 291.008 358.4 111.808 347.2zM454.4 672s201.6 11.2 201.6-89.6-201.6-89.6-201.6-89.6zM454.4 224v201.6s246.4 0 246.4-100.8-246.4-100.8-246.4-100.8z" />
<glyph unicode="&#xe992;" glyph-name="currency-chf" data-tags="currency-chf" d="M224 182.144h88.64v-132.928h88.576v132.928h88.64v88.64h-88.64v132.928h354.496v88.576h-354.496v265.856h398.784v88.64h-487.36v-576h-88.64v-88.64z" />
<glyph unicode="&#xe993;" glyph-name="currency-cny" data-tags="currency-cny" d="M372.096 547.584h-158.784v-99.584h207.296l41.6-85.312v-14.272h-248.896v-99.52h248.896v-248.896h99.584v248.896h248.896v99.52h-248.896v14.272l41.6 85.312h207.296v99.584h-158.784l169.984 348.416h-110.784l-199.104-408.256-199.104 408.256h-110.784l169.984-348.416z" />
<glyph unicode="&#xe994;" glyph-name="currency-eth" data-tags="currency-eth" d="M512 218.56l-273.152 163.904 273.152-382.464 273.152 382.464-273.152-163.904zM238.848 437.056l273.152-163.904 273.152 163.904-273.152 458.944-273.152-458.944z" />
<glyph unicode="&#xe995;" glyph-name="currency-eur" data-tags="currency-eur" d="M650.56 796.416c0.060 0 0.131 0 0.203 0 112.571 0 212.654-53.465 276.243-136.387l0.611-0.829 43.136 102.4c-81.385 83.046-194.711 134.526-320.060 134.526-193.854 0-358.95-123.125-421.353-295.439l-0.987-3.119h-125.312l-49.792-99.776h152.064l-2.752-49.792 2.752-49.792h-77.312l-49.792-99.584h174.72c63.335-175.536 228.483-298.753 422.409-298.753 103.591 0 198.97 35.159 274.855 94.196l-1.008-0.755v139.136c-64.396-81.284-163.1-132.96-273.873-132.96-138.231 0-257.667 80.469-314.021 197.118l-0.907 2.081h439.616l42.112 99.584h-536.448l-3.52 49.728 3.52 49.792h553.6l42.112 99.584h-565.696c57.274 118.642 176.654 199.040 314.811 199.040 0.024 0 0.049 0 0.073 0h-0.004z" />
<glyph unicode="&#xe996;" glyph-name="currency-gbp" data-tags="currency-gbp" d="M213.312 62.208v-62.208h597.312v99.584h-431.36c43.584 39.319 75.44 90.867 90.181 149.226l0.443 2.070c5.84 29.257 9.182 62.894 9.182 97.31 0 17.568-0.871 34.933-2.571 52.053l0.174-2.163h184.64v99.712h-205.312l-10.816 61.12-5.44 74.688c-0.148 2.781-0.232 6.037-0.232 9.312 0 42.36 14.108 81.424 37.881 112.751l-0.337-0.463c27.685 30.495 67.482 49.565 111.733 49.565 3.607 0 7.185-0.127 10.728-0.376l-0.477 0.027c0.748 0.006 1.632 0.010 2.518 0.010 26.573 0 52.414-3.129 77.176-9.040l-2.254 0.454c19.426-4.602 36.493-11.064 52.425-19.4l-1.225 0.584 29.12 86.976c-17.9 9.643-38.645 17.373-60.504 22.113l-1.576 0.287c-27.291 6.121-58.634 9.628-90.796 9.628-1.717 0-3.432-0.010-5.144-0.030l0.261 0.002c-3.007 0.115-6.538 0.18-10.084 0.18-71.754 0-137.258-26.758-187.079-70.84l0.299 0.26c-47.268-46.133-76.582-110.476-76.582-181.665 0-3.229 0.060-6.445 0.18-9.645l-0.014 0.462c1.059-49.139 6.113-96.36 14.858-142.273l-0.842 5.313h-126.464v-99.584h159.616l4.288-38.4 1.408-48.96c-0.179-54.766-17.169-105.528-46.076-147.437l0.572 0.877c-30.329-43.752-70.747-78.486-118-101.293l-1.808-0.787z" />
<glyph unicode="&#xe997;" glyph-name="currency-inr" data-tags="currency-inr" d="M238.208 796.416h124.48c69.103-0.007 128.809-40.232 156.987-98.543l0.453-1.041h-232.128l-49.792-99.52h296.896c-12.63-84.892-84.999-149.281-172.413-149.312h-124.483v-99.584l298.496-348.416h124.416l-298.304 348.224h34.688v2.432c127.004 16.778 225.748 118.543 237.74 245.56l0.084 1.096h100.672l49.792 99.584h-159.68c-11.066 38.345-29.031 71.621-52.648 100.030l0.36-0.446h162.176l49.792 99.52h-497.792z" />
<glyph unicode="&#xe998;" glyph-name="currency-jpy" data-tags="currency-jpy" d="M711.104 896l-199.104-408.256-199.104 408.256h-110.784l169.984-348.416h-158.784v-99.584h207.296l41.6-85.312v-14.272h-248.896v-99.52h248.896v-248.896h99.584v248.896h248.896v99.52h-248.896v14.272l41.6 85.312h207.296v99.584h-158.784l169.984 348.416h-110.784z" />
<glyph unicode="&#xe999;" glyph-name="currency-krw" data-tags="currency-krw" d="M910.208 896l-66.368-298.688h-199.104l-66.368 298.688h-132.736l-66.368-298.688h-199.104l-66.368 298.688h-99.584l66.368-298.688h-66.368v-99.52h88.192l22.144-99.584h-110.336v-99.584h132.992l66.112-298.624h132.736l66.368 298.688h199.104l66.368-298.688h132.736l66.176 298.688h132.736v99.52h-110.4l22.464 99.584h88.512v99.52h-66.688l66.368 298.688zM279.68 149.312l-33.216 149.312h66.432zM334.976 398.208h-110.592l-22.080 99.584h154.816zM512 746.624l33.152-149.248h-66.304zM434.56 398.208l22.144 99.584h110.592l22.144-99.584zM744.256 149.312l-33.216 149.376h66.368zM799.552 398.208h-110.592l-22.144 99.584h154.88z" />
</font>
</defs>
</svg>
